UFC Fight Night 147 Till vs Masvidal 720p 60fps ESPN WEB-DL AAC 2.0 H264

UFC Fight Night 147 Till vs Masvidal 720p 60fps ESPN WEB-DL AAC 2.0 H264

Code:

General
Complete name                            : /Volumes/Steve Way External HD/Movies/XWT/UFC/147/UFC.Fight.Night.147.Till.vs.Masvidal.720p.60fps.ESPN.WEB-DL.AAC2.0.H.264.mp4
Format                                  : MPEG-4
Format profile                          : Base Media
Codec ID                                : isom (isom/iso2/avc1/mp41)
File size                                : 9.30 GiB
Duration                                : 3 h 10 min
Overall bit rate mode                    : Constant
Overall bit rate                        : 6 990 kb/s
Writing application                      : Lavf58.20.100

Video
ID                                      : 1
Format                                  : AVC
Format/Info                              : Advanced Video Codec
Format profile                          : High@L4
Format settings                          : CABAC / 4 Ref Frames
Format settings, CABAC                  : Yes
Format settings, ReFrames                : 4 frames
Codec ID                                : avc1
Codec ID/Info                            : Advanced Video Coding
Duration                                : 3 h 10 min
Bit rate mode                            : Constant
Bit rate                                : 6 872 kb/s
Width                                    : 1 280 pixels
Height                                  : 720 pixels
Display aspect ratio                    : 16:9
Frame rate mode                          : Variable
Frame rate                              : 59.520 FPS
Minimum frame rate                      : 0.018 FPS
Maximum frame rate                      : 59.960 FPS
Original frame rate                      : 59.940 (60000/1001) FPS
Color space                              : YUV
Chroma subsampling                      : 4:2:0
Bit depth                                : 8 bits
Scan type                                : Progressive
Bits/(Pixel*Frame)                      : 0.125
Stream size                              : 9.11 GiB (98%)
Codec configuration box                  : avcC

Audio
ID                                      : 2
Format                                  : AAC LC
Format/Info                              : Advanced Audio Codec Low Complexity
Codec ID                                : mp4a-40-2
Duration                                : 3 h 10 min
Bit rate mode                            : Constant
Bit rate                                : 125 kb/s
Channel(s)                              : 2 channels
Channel layout                          : L R
Sampling rate                            : 48.0 kHz
Frame rate                              : 46.875 FPS (1024 SPF)
Compression mode                        : Lossy
Stream size                              : 170 MiB (2%)
Default                                  : Yes
Alternate group                          : 1

Text #1
ID                                      : 1-CC1
Format                                  : EIA-608
Muxing mode                              : SCTE 128 / DTVCC Transport
Muxing mode, more info                  : Muxed in Video #1
Duration                                : 3 h 10 min
Bit rate mode                            : Constant
Stream size                              : 0.00 Byte (0%)
Encoded stream size                      : 0.00 Byte (0%)
CaptionServiceName                      : CC1

Text #2
ID                                      : 1-1
Format                                  : EIA-708
Muxing mode                              : SCTE 128 / DTVCC Transport
Muxing mode, more info                  : Muxed in Video #1
Duration                                : 3 h 10 min
Bit rate mode                            : Constant
Stream size                              : 0.00 Byte (0%)
Encoded stream size                      : 0.00 Byte (0%)


Single Link

Code:

https://rapidgator.net/file/79dc2f7625d82250c93f603580bf12b8/UFC.Fight.Night.147.Till.vs.Masvidal.720p.60fps.ESPN.WEB-DL.AAC2.0.H.264.mp4

https://uploadgig.com/file/download/03a7219a7a8b60fd/UFC.Fight.Night.147.Till.vs.Masvidal.720p.60fps.ESPN.WEB-DL.AAC2.0.H.264.mp4

http://nitroflare.com/view/AB66C24230E4094/UFC.Fight.Night.147.Till.vs.Masvidal.720p.60fps.ESPN.WEB-DL.AAC2.0.H.264.mp4

2GB Link

Code:

https://rapidgator.net/file/f28d3904f9a24b18f271030f6f0249d9/UFC.Fight.Night.147.Till.vs.Masvidal.720p.60fps.ESPN.WEB-DL.AAC2.0.H.264.part1.rar.html
https://rapidgator.net/file/91ea4cb9ceebba4977fb86380613d985/UFC.Fight.Night.147.Till.vs.Masvidal.720p.60fps.ESPN.WEB-DL.AAC2.0.H.264.part2.rar.html
https://rapidgator.net/file/b9ca3e451148fd32e2fdffe8c195abe4/UFC.Fight.Night.147.Till.vs.Masvidal.720p.60fps.ESPN.WEB-DL.AAC2.0.H.264.part3.rar.html
https://rapidgator.net/file/fae414379b59fc55d50fb220d8b56e20/UFC.Fight.Night.147.Till.vs.Masvidal.720p.60fps.ESPN.WEB-DL.AAC2.0.H.264.part4.rar.html
https://rapidgator.net/file/2d3ecc3974432e39673b01c2ed9afffb/UFC.Fight.Night.147.Till.vs.Masvidal.720p.60fps.ESPN.WEB-DL.AAC2.0.H.264.part5.rar.html


UFC Fight Night 147 Till vs Masvidal 720p 60fps ESPN WEB-DL AAC 2.0 H264
Download links:


Related News:


Add comments

Your Name:
Your E-Mail:

Enter the words shown in captcha:


Attention!!! Comments moderated and will not appear immediately. Do not post a comment twice.