[Action] Sicario 2015 2160p BluRay x265 10bit SDR DTS-HD MA TrueHD 7 1 Atmos - SWTYBLZ

Sicario.2015.2160p.BluRay.x265.10bit.SDR.DTS-HD.MA.TrueHD.7.1.Atmos-SWTYBLZ

Title: Sicario (2015)
IMDB Rating: 7.6/10 from 267991 users Updated : 2017-12-28
RottenTomatoes: [fresh!] 93% [audience liked it!] 84%
Genres: Action , Crime , Drama , Mystery , Thriller
Actors: Emily Blunt , Josh Brolin , Benicio Del Toro , Victor Garber , Jon Bernthal , Daniel Kaluuya , Jeffrey Donovan , Raoul Max Trujillo , Julio Cesar Cedillo ,
Hank Rogerson , Bernardo Saracino , Maximiliano Hernández , Kevin Wiggins , Edgar Arreola , Kim Larrichio
Director: Denis Villeneuve
IMDB Runtime: 121
Year: 2015
Plot: When drug violence worsens on the USA Mexico border| the FBI sends an idealistic agent| Kate Macer (Emily Blunt) on a mission to eradicate a drug cartel responsible
for a bomb that had killed members of her team.
Rotten Plot: Led by outstanding work from Emily Blunt and Benicio del Toro, Sicario is a taut, tightly wound thriller with much more on its mind than attention-getting set
pieces.

Media info:

Code:

Video
ID                                      : 1
Format                                  : HEVC
Format/Info                              : High Efficiency Video Coding
Format profile                          : Main 10@L5.1@High
Codec ID                                : V_MPEGH/ISO/HEVC
Duration                                : 2 h 1 min
Bit rate                                : 21.5 Mb/s
Width                                    : 3 840 pixels
Height                                  : 1 600 pixels
Display aspect ratio                    : 2.40:1
Frame rate mode                          : Constant
Frame rate                              : 23.976 (24000/1001) FPS
Color space                              : YUV
Chroma subsampling                      : 4:2:0
Bit depth                                : 10 bits
Bits/(Pixel*Frame)                      : 0.146
Stream size                              : 18.2 GiB (72%)
Title                                    : Sicario.2015.2160p.BluRay.x265.10bit.SDR.DTS-HD.MA.TrueHD.7.1.Atmos-SWTYBLZ
Writing library                          : x265 2.5+4-b4a5bcfe29c7:[Windows][GCC 4.9.3][64 bit] 10bit
Encoding settings                        : cpuid=1173503 / frame-threads=16 / numa-pools=24,24,24,24 / wpp / no-pmode / no-pme / no-psnr / no-ssim / log-level=2 / input-csp=1 / input-res=3840x1600 / interlace=0 / total-frames=0 / level-idc=51 / high-tier=1 / uhd-bd=0 / ref=3 / no-allow-non-conformance / repeat-headers / annexb / aud / hrd / info / hash=0 / no-temporal-layers / no-open-gop / min-keyint=1 / keyint=24 / bframes=4 / b-adapt=2 / b-pyramid / bframe-bias=0 / rc-lookahead=25 / lookahead-slices=4 / scenecut=40 / no-intra-refresh / ctu=64 / min-cu-size=8 / no-rect / no-amp / max-tu-size=32 / tu-inter-depth=1 / tu-intra-depth=1 / limit-tu=0 / rdoq-level=0 / dynamic-rd=0.00 / no-ssim-rd / signhide / no-tskip / nr-intra=0 / nr-inter=0 / no-constrained-intra / strong-intra-smoothing / max-merge=2 / limit-refs=3 / no-limit-modes / me=1 / subme=2 / merange=57 / temporal-mvp / weightp / no-weightb / no-analyze-src-pics / deblock=0:0 / no-sao / no-sao-non-deblock / rd=3 / no-early-skip / rskip / no-fast-intra / no-tskip-fast / no-cu-lossless / no-b-intra / rdpenalty=0 / psy-rd=2.00 / psy-rdoq=0.00 / no-rd-refine / analysis-reuse-mode=0 / no-lossless / cbqpoffs=0 / crqpoffs=0 / rc=crf / crf=16.0 / qcomp=0.60 / qpstep=4 / stats-write=0 / stats-read=0 / vbv-maxrate=160000 / vbv-bufsize=160000 / vbv-init=0.9 / crf-max=0.0 / crf-min=0.0 / ipratio=1.40 / pbratio=1.30 / aq-mode=1 / aq-strength=1.00 / cutree / zone-count=0 / no-strict-cbr / qg-size=32 / no-rc-grain / qpmax=69 / qpmin=0 / no-const-vbv / sar=1 / overscan=0 / videoformat=5 / range=0 / colorprim=2 / transfer=2 / colormatrix=2 / chromaloc=0 / display-window=0 / max-cll=0,0 / min-luma=0 / max-luma=1023 / log2-max-poc-lsb=8 / vui-timing-info / vui-hrd-info / slices=1 / opt-qp-pps / opt-ref-list-length-pps / no-multi-pass-opt-rps / scenecut-bias=0.05 / no-opt-cu-delta-qp / no-aq-motion / no-hdr / no-hdr-opt / no-dhdr10-opt / analysis-reuse-level=5 / scale-factor=0 / refine-intra=0 / refine-inter=0 / refine-mv=0 / no-limit-sao / ctu-info=0
Default                                  : Yes
Forced                                  : No

Audio #1
ID                                      : 2
Format                                  : TrueHD
Format profile                          : TrueHD+Atmos / TrueHD
Codec ID                                : A_TRUEHD
Duration                                : 2 h 1 min
Bit rate mode                            : Variable
Bit rate                                : 4 084 kb/s
Maximum bit rate                        : 9 354 kb/s
Channel(s)                              : Object Based / 8 channels
Channel positions                        : Object Based / Front: L C R, Side: L R, Back: L R, LFE
Sampling rate                            :  / 48.0 kHz
Frame rate                              : 1 200.000 FPS (40 SPF)
Compression mode                        : Lossless
Delay relative to video                  : 32 ms
Stream size                              : 3.46 GiB (14%)
Title                                    : Sicario.2015.2160p.BluRay.x265.10bit.SDR.DTS-HD.MA.TrueHD.7.1.Atmos-SWTYBLZ
Language                                : English
Default                                  : Yes
Forced                                  : No

Audio #2
ID                                      : 3
Format                                  : DTS
Format/Info                              : Digital Theater Systems
Format profile                          : MA / Core
Codec ID                                : A_DTS
Duration                                : 2 h 1 min
Bit rate mode                            : Variable / Constant
Bit rate                                : 3 471 kb/s / 1 509 kb/s
Channel(s)                              : 8 channels / 6 channels
Channel positions                        : Front: L C R, Side: L R, Back: L R, LFE / Front: L C R, Side: L R, LFE
Sampling rate                            : 48.0 kHz
Frame rate                              : 93.750 FPS (512 SPF)
Bit depth                                : 24 bits
Compression mode                        : Lossless / Lossy
Stream size                              : 2.94 GiB (12%)
Title                                    : Sicario.2015.2160p.BluRay.x265.10bit.SDR.DTS-HD.MA.TrueHD.7.1.Atmos-SWTYBLZ
Language                                : English
Default                                  : No
Forced                                  : No

Audio #3
ID                                      : 4
Format                                  : AC-3
Format/Info                              : Audio Coding 3
Codec ID                                : A_AC3
Duration                                : 2 h 1 min
Bit rate mode                            : Constant
Bit rate                                : 640 kb/s
Channel(s)                              : 6 channels
Channel positions                        : Front: L C R, Side: L R, LFE
Sampling rate                            : 48.0 kHz
Frame rate                              : 31.250 FPS (1536 SPF)
Bit depth                                : 16 bits
Compression mode                        : Lossy
Delay relative to video                  : 31 ms
Stream size                              : 555 MiB (2%)
Title                                    : Sicario.2015.2160p.BluRay.x265.10bit.SDR.DTS-HD.MA.TrueHD.7.1.Atmos-SWTYBLZ
Language                                : English
Service kind                            : Complete Main
Default                                  : No
Forced                                  : No

Text #1
ID                                      : 5
Format                                  : UTF-8
Codec ID                                : S_TEXT/UTF8
Codec ID/Info                            : UTF-8 Plain Text
Duration                                : 1 h 50 min
Bit rate                                : 38 b/s
Count of elements                        : 989
Stream size                              : 31.1 KiB (0%)
Title                                    : English-SRT
Language                                : English
Default                                  : Yes
Forced                                  : No

Text #2
ID                                      : 6
Format                                  : PGS
Muxing mode                              : zlib
Codec ID                                : S_HDMV/PGS
Codec ID/Info                            : Picture based subtitle format used on BDs/HD-DVDs
Duration                                : 1 h 50 min
Bit rate                                : 23.6 kb/s
Count of elements                        : 1878
Stream size                              : 18.7 MiB (0%)
Title                                    : English-PGS
Language                                : English
Default                                  : No
Forced                                  : No

Text #3
ID                                      : 7
Format                                  : PGS
Muxing mode                              : zlib
Codec ID                                : S_HDMV/PGS
Codec ID/Info                            : Picture based subtitle format used on BDs/HD-DVDs
Duration                                : 1 h 53 min
Bit rate                                : 29.4 kb/s
Count of elements                        : 2490
Stream size                              : 23.9 MiB (0%)
Title                                    : English-SDH-PGS
Language                                : English
Default                                  : No
Forced                                  : No

Text #4
ID                                      : 8
Format                                  : PGS
Muxing mode                              : zlib
Codec ID                                : S_HDMV/PGS
Codec ID/Info                            : Picture based subtitle format used on BDs/HD-DVDs
Duration                                : 1 h 52 min
Bit rate                                : 22.3 kb/s
Count of elements                        : 1858
Stream size                              : 17.9 MiB (0%)
Title                                    : Spanish-PGS
Language                                : Spanish
Default                                  : No
Forced                                  : No

Menu
00:00:00.000                            : en:Chapter 1
00:07:13.349                            : en:Chapter 2
00:12:54.106                            : en:Chapter 3
00:20:03.368                            : en:Chapter 4
00:25:23.813                            : en:Chapter 5
00:32:10.595                            : en:Chapter 6
00:39:23.819                            : en:Chapter 7
00:46:14.313                            : en:Chapter 8
00:53:23.575                            : en:Chapter 9
01:01:39.320                            : en:Chapter 10
01:10:48.118                            : en:Chapter 11
01:18:01.885                            : en:Chapter 12
01:30:58.369                            : en:Chapter 13
01:36:56.769                            : en:Chapter 14
01:47:41.037                            : en:Chapter 15
01:54:11.803                            : en:Chapter 16

NFO / Screenshots:

Code:

http://imdb.com/title/tt3397884/
https://www.youtube.com/watch?v=7XLQ1bkSLDo

SWEATY BALLZ presents

Sicario.2015.2160p.BluRay.x265.10bit.SDR.DTS-HD.MA.TrueHD.7.1.Atmos-SWTYBLZ

Converted from 10 bit HDR to 10 bit SDR using tripple mixed Hable-Reinhard-JJ per scene+frame analysis algorithm

Screenshots are 8bit SDR because browsers dont support HDR or 10bit files

http://imagecurl.com/viewer.php?file=11680843480663648694.png
http://imagecurl.com/images/11680843480663648694_thumb.png
http://imagecurl.com/viewer.php?file=30434868364784671276.png
http://imagecurl.com/images/30434868364784671276_thumb.png
http://imagecurl.com/viewer.php?file=24389828137711185272.png
http://imagecurl.com/images/24389828137711185272_thumb.png
http://imagecurl.com/viewer.php?file=45594605429068577192.png
http://imagecurl.com/images/45594605429068577192_thumb.png
http://imagecurl.com/viewer.php?file=54190479281736116636.png
http://imagecurl.com/images/54190479281736116636_thumb.png
http://imagecurl.com/viewer.php?file=19246528607775471430.png
http://imagecurl.com/images/19246528607775471430_thumb.png
http://imagecurl.com/viewer.php?file=29210512898655191900.png
http://imagecurl.com/images/29210512898655191900_thumb.png

Language(Text): is in the mediainfo
Language(Audio): English
Format: mkv
Size: 25.51 GB
No Pass

Download via Share-Online

Code:

http://www.share-online.biz/dl/S4QXGI2PLK0
http://www.share-online.biz/dl/N2OXGI2PE96R
http://www.share-online.biz/dl/D3PXGI2PCG
http://www.share-online.biz/dl/YRQXGI2P6VED
http://www.share-online.biz/dl/08RXGI2PZE4N
http://www.share-online.biz/dl/3ASXGI2PPJ
http://www.share-online.biz/dl/34TXGI2P14
http://www.share-online.biz/dl/ZSTXGI2PG90
http://www.share-online.biz/dl/K8UXGI2P3V
http://www.share-online.biz/dl/N8VXGI2P2F
http://www.share-online.biz/dl/AEWXGI2PUE
http://www.share-online.biz/dl/05XXGI2PR3
http://www.share-online.biz/dl/D6YXGI2PJUC5
http://www.share-online.biz/dl/RKYXGI2P79
http://www.share-online.biz/dl/810YGI2PRKO
http://www.share-online.biz/dl/W6ZXGI2P3CN
http://www.share-online.biz/dl/731YGI2PSR
http://www.share-online.biz/dl/R01YGI2PRH
http://www.share-online.biz/dl/JG2YGI2PQ2O
http://www.share-online.biz/dl/CD3YGI2PLFP
http://www.share-online.biz/dl/6V5YGI2PVUF
http://www.share-online.biz/dl/I94YGI2P4P1
http://www.share-online.biz/dl/MD6YGI2P8M
http://www.share-online.biz/dl/GB6YGI2P8YS
http://www.share-online.biz/dl/UR7YGI2PL27B
http://www.share-online.biz/dl/XK8YGI2PZM
http://www.share-online.biz/dl/MP8YGI2PERW
http://www.share-online.biz/dl/E69YGI2PS7E
http://www.share-online.biz/dl/KYAYGI2PUW
http://www.share-online.biz/dl/E5BYGI2P0BH0
http://www.share-online.biz/dl/K1BYGI2PPRL
http://www.share-online.biz/dl/4JCYGI2P6DB
http://www.share-online.biz/dl/LBDYGI2PQCG
http://www.share-online.biz/dl/M2EYGI2PF4V
http://www.share-online.biz/dl/GGFYGI2P3GB
http://www.share-online.biz/dl/LTFYGI2P9U
http://www.share-online.biz/dl/DDGYGI2PFEU
http://www.share-online.biz/dl/3HHYGI2PAZ
http://www.share-online.biz/dl/39JYGI2PA3C
http://www.share-online.biz/dl/TLKYGI2PD5
http://www.share-online.biz/dl/5IJYGI2P2R
http://www.share-online.biz/dl/70LYGI2PYA5N
http://www.share-online.biz/dl/1FMYGI2P2R
http://www.share-online.biz/dl/1HMYGI2P9AO
http://www.share-online.biz/dl/0MNYGI2P66Y
http://www.share-online.biz/dl/UYOYGI2PTS1
http://www.share-online.biz/dl/ECOYGI2PRMN
http://www.share-online.biz/dl/DNPYGI2PN5
http://www.share-online.biz/dl/5CQYGI2PKCT
http://www.share-online.biz/dl/3ORYGI2PBC
http://www.share-online.biz/dl/PNSYGI2PIDS2
http://www.share-online.biz/dl/1FUYGI2PRU
http://www.share-online.biz/dl/4GTYGI2PHDPD
http://www.share-online.biz/dl/K9VYGI2P5OH
http://www.share-online.biz/dl/LKXYGI2PXO
http://www.share-online.biz/dl/EYXYGI2PZNK4
http://www.share-online.biz/dl/N5WYGI2PTD
http://www.share-online.biz/dl/682ZGI2P8Q8
http://www.share-online.biz/dl/Q9YYGI2P1ST
http://www.share-online.biz/dl/3YZYGI2POZ
http://www.share-online.biz/dl/MT0ZGI2PI51
http://www.share-online.biz/dl/1B0ZGI2PI3N1
http://www.share-online.biz/dl/1Q1ZGI2P0QY
http://www.share-online.biz/dl/DZ2ZGI2PINW
http://www.share-online.biz/dl/Y23ZGI2PFIWA
http://www.share-online.biz/dl/6Z4ZGI2PRGX8
http://www.share-online.biz/dl/WH4ZGI2PZ0V
http://www.share-online.biz/dl/CH6ZGI2P0H
http://www.share-online.biz/dl/5K5ZGI2P8GE


[Action] Sicario 2015 2160p BluRay x265 10bit SDR DTS-HD MA TrueHD 7 1 Atmos - SWTYBLZ
Download links:


Related News:


Add comments

Your Name:
Your E-Mail:

Enter the words shown in captcha:


Attention!!! Comments moderated and will not appear immediately. Do not post a comment twice.