[Sci-Fi] I Am Legend 2007 2160p UHD BluRay x265 - DEPTH

I.Am.Legend.2007.2160p.BluRay.x265.10bit.HDR.DTS-HD.MA.5.1-DEPTH

Title: I Am Legend (2007)
IMDB Rating: 7.2/10 from 589715 users Updated : 2018-01-10
Rotten Rating: 6.3/10
RottenTomatoes: [fresh!] 69% [audience liked it!] 68%
Genres: Drama , Horror , Sci-Fi , Thriller
Actors: Will Smith , Alice Braga , Charlie Tahan , Salli Richardson-Whitfield , Willow Smith , Darrell Foster , April Grace , Dash Mihok , Joanna Numata ,
Abbey , Kona , Samuel Glen , James McCauley , Marin Ireland , Pedro Mojica
Director: Francis Lawrence
IMDB Runtime: 101
Year: 2007
Plot: Robert Neville is a scientist who was unable to stop the spread of the terrible virus that was incurable and man-made. Immune| Neville is now the last human survivor
in what is left of New York City and perhaps the world. For three years| Neville has faithfully sent out daily radio messages| desperate to find any other survivors
who might be out there. But he is not alone. Mutant victims of the plague -- The Infected -- lurk in the shadows... watching Neville's every move... waiting for him
to make a fatal mistake. Perhaps mankind's last| best hope| Neville is driven by only one remaining mission: to find a way to reverse the effects of the virus using
his own immune blood. But he knows he is outnumbered... and quickly running out of time.

Media info:

Code:

Video
ID                                      : 1
Format                                  : HEVC
Format/Info                              : High Efficiency Video Coding
Format profile                          : Main 10@L5.1@High
Codec ID                                : V_MPEGH/ISO/HEVC
Duration                                : 1 h 40 min
Bit rate                                : 17.5 Mb/s
Width                                    : 3 840 pixels
Height                                  : 1 600 pixels
Display aspect ratio                    : 2.40:1
Frame rate mode                          : Constant
Frame rate                              : 23.976 (24000/1001) FPS
Color space                              : YUV
Chroma subsampling                      : 4:2:0 (Type 2)
Bit depth                                : 10 bits
Bits/(Pixel*Frame)                      : 0.119
Stream size                              : 12.3 GiB (81%)
Writing library                          : x265 2.6+22-ff02513b92c0:[Windows][GCC 6.3.0][64 bit] 10bit
Encoding settings                        : cpuid=1173503 / frame-threads=4 / numa-pools=20 / wpp / no-pmode / no-pme / no-psnr / no-ssim / log-level=2 / input-csp=1 / input-res=3840x1600 / interlace=0 / total-frames=144502 / level-idc=51 / high-tier=1 / uhd-bd=0 / ref=4 / no-allow-non-conformance / repeat-headers / annexb / aud / hrd / info / hash=0 / no-temporal-layers / no-open-gop / min-keyint=1 / keyint=24 / gop-lookahead=0 / bframes=4 / b-adapt=2 / b-pyramid / bframe-bias=0 / rc-lookahead=25 / lookahead-slices=4 / scenecut=40 / radl=0 / no-intra-refresh / ctu=64 / min-cu-size=8 / rect / no-amp / max-tu-size=32 / tu-inter-depth=1 / tu-intra-depth=1 / limit-tu=0 / rdoq-level=2 / dynamic-rd=0.00 / no-ssim-rd / signhide / no-tskip / nr-intra=0 / nr-inter=0 / no-constrained-intra / no-strong-intra-smoothing / max-merge=3 / limit-refs=3 / limit-modes / me=3 / subme=3 / merange=57 / temporal-mvp / weightp / no-weightb / no-analyze-src-pics / deblock=-3:-3 / no-sao / no-sao-non-deblock / rd=4 / no-early-skip / rskip / no-fast-intra / no-tskip-fast / no-cu-lossless / no-b-intra / no-splitrd-skip / rdpenalty=0 / psy-rd=2.00 / psy-rdoq=1.00 / no-rd-refine / no-lossless / cbqpoffs=0 / crqpoffs=0 / rc=crf / crf=17.0 / qcomp=0.60 / qpstep=4 / stats-write=0 / stats-read=0 / vbv-maxrate=160000 / vbv-bufsize=160000 / vbv-init=0.9 / crf-max=0.0 / crf-min=0.0 / ipratio=1.40 / pbratio=1.30 / aq-mode=1 / aq-strength=1.00 / cutree / zone-count=0 / no-strict-cbr / qg-size=32 / no-rc-grain / qpmax=69 / qpmin=0 / no-const-vbv / sar=1 / overscan=0 / videoformat=5 / range=0 / colorprim=9 / transfer=16 / colormatrix=9 / chromaloc=1 / chromaloc-top=2 / chromaloc-bottom=2 / display-window=0 / master-display=G(13250,34500)B(7500,3000)R(34000,16000)WP(15635,16450)L(40000000,50) / max-cll=1261,512 / min-luma=0 / max-luma=1023 / log2-max-poc-lsb=8 / vui-timing-info / vui-hrd-info / slices=1 / no-opt-qp-pps / no-opt-ref-list-length-pps / no-multi-pass-opt-rps / scenecut-bias=0.05 / no-opt-cu-delta-qp / no-aq-motion / hdr / hdr-opt / no-dhdr10-opt / analysis-save=(null) / analysis-load=(null) / analysis-reuse-level=5 / scale-factor=0 / refine-intra=0 / refine-inter=0 / refine-mv=0 / no-limit-sao / ctu-info=0 / no-lowpass-dct / refine-mv-type=0 / copy-pic=1
Default                                  : Yes
Forced                                  : No
Color range                              : Limited
Color primaries                          : BT.2020
Transfer characteristics                : PQ
Matrix coefficients                      : BT.2020 non-constant
Mastering display color primaries        : Display P3
Mastering display luminance              : min: 0.0050 cd/m2, max: 4000 cd/m2
Maximum Content Light Level              : 1261 cd/m2
Maximum Frame-Average Light Level        : 512 cd/m2

Audio #1
ID                                      : 2
Format                                  : DTS
Format/Info                              : Digital Theater Systems
Format profile                          : MA / Core
Codec ID                                : A_DTS
Duration                                : 1 h 40 min
Bit rate mode                            : Variable / Constant
Bit rate                                : 3 623 kb/s / 1 509 kb/s
Channel(s)                              : 6 channels
Channel positions                        : Front: L C R, Side: L R, LFE
Sampling rate                            : 48.0 kHz
Frame rate                              : 93.750 FPS (512 SPF)
Bit depth                                : 24 bits
Compression mode                        : Lossless / Lossy
Stream size                              : 2.54 GiB (17%)
Language                                : English
Default                                  : Yes
Forced                                  : No

Audio #2
ID                                      : 3
Format                                  : AC-3
Format/Info                              : Audio Coding 3
Codec ID                                : A_AC3
Duration                                : 1 h 40 min
Bit rate mode                            : Constant
Bit rate                                : 192 kb/s
Channel(s)                              : 2 channels
Channel positions                        : Front: L R
Sampling rate                            : 48.0 kHz
Frame rate                              : 31.250 FPS (1536 SPF)
Bit depth                                : 16 bits
Compression mode                        : Lossy
Stream size                              : 138 MiB (1%)
Title                                    : Commentary with director Francis Lawrence, and writer/producer Akiva Goldsman
Language                                : English
Service kind                            : Complete Main
Default                                  : No
Forced                                  : No

Text #1
ID                                      : 4
Format                                  : PGS
Muxing mode                              : zlib
Codec ID                                : S_HDMV/PGS
Codec ID/Info                            : Picture based subtitle format used on BDs/HD-DVDs
Duration                                : 1 h 40 min
Bit rate                                : 19.3 kb/s
Count of elements                        : 1494
Stream size                              : 13.8 MiB (0%)
Title                                    : SDH
Language                                : English
Default                                  : No
Forced                                  : No

Text #2
ID                                      : 5
Format                                  : PGS
Muxing mode                              : zlib
Codec ID                                : S_HDMV/PGS
Codec ID/Info                            : Picture based subtitle format used on BDs/HD-DVDs
Duration                                : 1 h 40 min
Bit rate                                : 12.0 kb/s
Count of elements                        : 1096
Stream size                              : 8.63 MiB (0%)
Language                                : French
Default                                  : No
Forced                                  : No

Text #3
ID                                      : 6
Format                                  : PGS
Muxing mode                              : zlib
Codec ID                                : S_HDMV/PGS
Codec ID/Info                            : Picture based subtitle format used on BDs/HD-DVDs
Duration                                : 1 h 40 min
Bit rate                                : 21.4 kb/s
Count of elements                        : 1526
Stream size                              : 15.3 MiB (0%)
Language                                : German
Default                                  : No
Forced                                  : No

Text #4
ID                                      : 7
Format                                  : PGS
Muxing mode                              : zlib
Codec ID                                : S_HDMV/PGS
Codec ID/Info                            : Picture based subtitle format used on BDs/HD-DVDs
Duration                                : 1 h 40 min
Bit rate                                : 18.7 kb/s
Count of elements                        : 1440
Stream size                              : 13.4 MiB (0%)
Language                                : Italian
Default                                  : No
Forced                                  : No

Text #5
ID                                      : 8
Format                                  : PGS
Muxing mode                              : zlib
Codec ID                                : S_HDMV/PGS
Codec ID/Info                            : Picture based subtitle format used on BDs/HD-DVDs
Duration                                : 1 h 40 min
Bit rate                                : 15.8 kb/s
Count of elements                        : 1312
Stream size                              : 11.4 MiB (0%)
Language                                : Spanish
Default                                  : No
Forced                                  : No

Text #6
ID                                      : 9
Format                                  : PGS
Muxing mode                              : zlib
Codec ID                                : S_HDMV/PGS
Codec ID/Info                            : Picture based subtitle format used on BDs/HD-DVDs
Duration                                : 1 h 40 min
Bit rate                                : 12.3 kb/s
Count of elements                        : 1004
Stream size                              : 8.83 MiB (0%)
Language                                : Dutch
Default                                  : No
Forced                                  : No

Text #7
ID                                      : 10
Format                                  : PGS
Muxing mode                              : zlib
Codec ID                                : S_HDMV/PGS
Codec ID/Info                            : Picture based subtitle format used on BDs/HD-DVDs
Duration                                : 1 h 40 min
Bit rate                                : 14.8 kb/s
Count of elements                        : 1316
Stream size                              : 10.6 MiB (0%)
Language                                : Chinese
Default                                  : No
Forced                                  : No

Text #8
ID                                      : 11
Format                                  : PGS
Muxing mode                              : zlib
Codec ID                                : S_HDMV/PGS
Codec ID/Info                            : Picture based subtitle format used on BDs/HD-DVDs
Duration                                : 1 h 40 min
Bit rate                                : 14.6 kb/s
Count of elements                        : 1340
Stream size                              : 10.5 MiB (0%)
Language                                : Chinese
Default                                  : No
Forced                                  : No

Text #9
ID                                      : 12
Format                                  : PGS
Muxing mode                              : zlib
Codec ID                                : S_HDMV/PGS
Codec ID/Info                            : Picture based subtitle format used on BDs/HD-DVDs
Duration                                : 1 h 39 min
Bit rate                                : 9 052 b/s
Count of elements                        : 1180
Stream size                              : 6.44 MiB (0%)
Language                                : Korean
Default                                  : No
Forced                                  : No

Text #10
ID                                      : 13
Format                                  : PGS
Muxing mode                              : zlib
Codec ID                                : S_HDMV/PGS
Codec ID/Info                            : Picture based subtitle format used on BDs/HD-DVDs
Duration                                : 1 h 40 min
Bit rate                                : 16.3 kb/s
Count of elements                        : 1316
Stream size                              : 11.7 MiB (0%)
Language                                : Spanish
Default                                  : No
Forced                                  : No

Text #11
ID                                      : 14
Format                                  : PGS
Muxing mode                              : zlib
Codec ID                                : S_HDMV/PGS
Codec ID/Info                            : Picture based subtitle format used on BDs/HD-DVDs
Duration                                : 1 h 40 min
Bit rate                                : 16.4 kb/s
Count of elements                        : 1276
Stream size                              : 11.8 MiB (0%)
Language                                : Portuguese
Default                                  : No
Forced                                  : No

Text #12
ID                                      : 15
Format                                  : PGS
Muxing mode                              : zlib
Codec ID                                : S_HDMV/PGS
Codec ID/Info                            : Picture based subtitle format used on BDs/HD-DVDs
Duration                                : 1 h 40 min
Bit rate                                : 8 959 b/s
Count of elements                        : 1330
Stream size                              : 6.43 MiB (0%)
Language                                : Arabic
Default                                  : No
Forced                                  : No

Text #13
ID                                      : 16
Format                                  : PGS
Muxing mode                              : zlib
Codec ID                                : S_HDMV/PGS
Codec ID/Info                            : Picture based subtitle format used on BDs/HD-DVDs
Duration                                : 1 h 40 min
Bit rate                                : 12.1 kb/s
Count of elements                        : 1184
Stream size                              : 8.68 MiB (0%)
Language                                : Czech
Default                                  : No
Forced                                  : No

Text #14
ID                                      : 17
Format                                  : PGS
Muxing mode                              : zlib
Codec ID                                : S_HDMV/PGS
Codec ID/Info                            : Picture based subtitle format used on BDs/HD-DVDs
Duration                                : 1 h 39 min
Bit rate                                : 12.1 kb/s
Count of elements                        : 882
Stream size                              : 8.59 MiB (0%)
Language                                : Danish
Default                                  : No
Forced                                  : No

Text #15
ID                                      : 18
Format                                  : PGS
Muxing mode                              : zlib
Codec ID                                : S_HDMV/PGS
Codec ID/Info                            : Picture based subtitle format used on BDs/HD-DVDs
Duration                                : 1 h 40 min
Bit rate                                : 12.5 kb/s
Count of elements                        : 1008
Stream size                              : 8.98 MiB (0%)
Language                                : Finnish
Default                                  : No
Forced                                  : No

Text #16
ID                                      : 19
Format                                  : PGS
Muxing mode                              : zlib
Codec ID                                : S_HDMV/PGS
Codec ID/Info                            : Picture based subtitle format used on BDs/HD-DVDs
Duration                                : 1 h 40 min
Bit rate                                : 13.7 kb/s
Count of elements                        : 1210
Stream size                              : 9.84 MiB (0%)
Language                                : Hungarian
Default                                  : No
Forced                                  : No

Text #17
ID                                      : 20
Format                                  : PGS
Muxing mode                              : zlib
Codec ID                                : S_HDMV/PGS
Codec ID/Info                            : Picture based subtitle format used on BDs/HD-DVDs
Duration                                : 1 h 39 min
Bit rate                                : 13.6 kb/s
Count of elements                        : 1120
Stream size                              : 9.67 MiB (0%)
Language                                : Norwegian
Default                                  : No
Forced                                  : No

Text #18
ID                                      : 21
Format                                  : PGS
Muxing mode                              : zlib
Codec ID                                : S_HDMV/PGS
Codec ID/Info                            : Picture based subtitle format used on BDs/HD-DVDs
Duration                                : 1 h 40 min
Bit rate                                : 15.5 kb/s
Count of elements                        : 1306
Stream size                              : 11.1 MiB (0%)
Language                                : Polish
Default                                  : No
Forced                                  : No

Text #19
ID                                      : 22
Format                                  : PGS
Muxing mode                              : zlib
Codec ID                                : S_HDMV/PGS
Codec ID/Info                            : Picture based subtitle format used on BDs/HD-DVDs
Duration                                : 1 h 40 min
Bit rate                                : 16.2 kb/s
Count of elements                        : 1292
Stream size                              : 11.6 MiB (0%)
Language                                : Portuguese
Default                                  : No
Forced                                  : No

Text #20
ID                                      : 23
Format                                  : PGS
Muxing mode                              : zlib
Codec ID                                : S_HDMV/PGS
Codec ID/Info                            : Picture based subtitle format used on BDs/HD-DVDs
Duration                                : 1 h 40 min
Bit rate                                : 18.2 kb/s
Count of elements                        : 1388
Stream size                              : 13.1 MiB (0%)
Language                                : Russian
Default                                  : No
Forced                                  : No

Text #21
ID                                      : 24
Format                                  : PGS
Muxing mode                              : zlib
Codec ID                                : S_HDMV/PGS
Codec ID/Info                            : Picture based subtitle format used on BDs/HD-DVDs
Duration                                : 1 h 40 min
Bit rate                                : 13.3 kb/s
Count of elements                        : 976
Stream size                              : 9.57 MiB (0%)
Language                                : Swedish
Default                                  : No
Forced                                  : No

Text #22
ID                                      : 25
Format                                  : PGS
Muxing mode                              : zlib
Codec ID                                : S_HDMV/PGS
Codec ID/Info                            : Picture based subtitle format used on BDs/HD-DVDs
Duration                                : 1 h 33 min
Bit rate                                : 13.1 kb/s
Count of elements                        : 1894
Stream size                              : 8.80 MiB (0%)
Language                                : Japanese
Default                                  : No
Forced                                  : No

Text #23
ID                                      : 26
Format                                  : PGS
Muxing mode                              : zlib
Codec ID                                : S_HDMV/PGS
Codec ID/Info                            : Picture based subtitle format used on BDs/HD-DVDs
Duration                                : 1 h 33 min
Bit rate                                : 43.4 kb/s
Count of elements                        : 3186
Stream size                              : 29.2 MiB (0%)
Language                                : Japanese
Default                                  : No
Forced                                  : No

Menu
00:00:00.000                            : en:00:00:00.000
00:02:14.134                            : en:00:02:14.134
00:07:56.476                            : en:00:07:56.476
00:12:07.393                            : en:00:12:07.393
00:15:15.706                            : en:00:15:15.706
00:18:20.099                            : en:00:18:20.099
00:23:22.526                            : en:00:23:22.526
00:26:42.184                            : en:00:26:42.184
00:31:49.282                            : en:00:31:49.282
00:34:15.595                            : en:00:34:15.595
00:37:45.805                            : en:00:37:45.805
00:39:16.145                            : en:00:39:16.145
00:44:06.644                            : en:00:44:06.644
00:48:50.928                            : en:00:48:50.928
00:53:12.731                            : en:00:53:12.731
00:56:54.786                            : en:00:56:54.786
00:59:41.453                            : en:00:59:41.453
01:02:41.091                            : en:01:02:41.091
01:04:30.658                            : en:01:04:30.658
01:09:18.488                            : en:01:09:18.488
01:11:21.903                            : en:01:11:21.903
01:17:38.779                            : en:01:17:38.779
01:20:14.935                            : en:01:20:14.935
01:24:10.921                            : en:01:24:10.921
01:27:59.691                            : en:01:27:59.691
01:29:48.049                            : en:01:29:48.049
01:31:48.002                            : en:01:31:48.002

NFO / Screenshots:

Code:

http://imdb.com/title/tt0480249/
https://www.youtube.com/watch?v=sFNPNT_4Qww

http://imagecurl.com/viewer.php?file=77417722572804744927.png
http://imagecurl.com/images/77417722572804744927_thumb.png
http://imagecurl.com/viewer.php?file=07827993847512196038.png
http://imagecurl.com/images/07827993847512196038_thumb.png
http://imagecurl.com/viewer.php?file=53104552415298858658.png
http://imagecurl.com/images/53104552415298858658_thumb.png
http://imagecurl.com/viewer.php?file=78772834396425474597.png
http://imagecurl.com/images/78772834396425474597_thumb.png
http://imagecurl.com/viewer.php?file=79021333500034862645.png
http://imagecurl.com/images/79021333500034862645_thumb.png
http://imagecurl.com/viewer.php?file=16887420838722829745.png
http://imagecurl.com/images/16887420838722829745_thumb.png

Language(Text): is in the mediainfo
Language(Audio): English
Format: mkv
Size: 15.23 GB
No Pass

Download via Share-Online

Code:

http://www.share-online.biz/dl/2SXLRE2PGEX
http://www.share-online.biz/dl/SEWLRE2PEM5
http://www.share-online.biz/dl/ABVLRE2PI9CO
http://www.share-online.biz/dl/DPXLRE2PNQT
http://www.share-online.biz/dl/ZZZLRE2PBUA
http://www.share-online.biz/dl/42YLRE2PCJF
http://www.share-online.biz/dl/0S0MRE2PL6
http://www.share-online.biz/dl/1A0MRE2PWOC
http://www.share-online.biz/dl/431MRE2PPC7T
http://www.share-online.biz/dl/4M1MRE2P8HI
http://www.share-online.biz/dl/GK2MRE2PKKK
http://www.share-online.biz/dl/5M3MRE2PF4X
http://www.share-online.biz/dl/CG3MRE2PDN
http://www.share-online.biz/dl/2J4MRE2PDE
http://www.share-online.biz/dl/2O6MRE2PET5Z
http://www.share-online.biz/dl/6T5MRE2PVP
http://www.share-online.biz/dl/GT7MRE2PSIE
http://www.share-online.biz/dl/BL6MRE2PN5
http://www.share-online.biz/dl/9J8MRE2POC
http://www.share-online.biz/dl/NW9MRE2PL7U
http://www.share-online.biz/dl/OF9MRE2P4QG
http://www.share-online.biz/dl/1VAMRE2PJOP
http://www.share-online.biz/dl/9KCMRE2P2DBB
http://www.share-online.biz/dl/OUDMRE2PHLS6
http://www.share-online.biz/dl/OIBMRE2P1Y
http://www.share-online.biz/dl/DGDMRE2PHAUY
http://www.share-online.biz/dl/OAEMRE2PUWG
http://www.share-online.biz/dl/K0EMRE2P4HW
http://www.share-online.biz/dl/EFFMRE2PFELJ
http://www.share-online.biz/dl/AEGMRE2PFY
http://www.share-online.biz/dl/HYHMRE2PC6MY
http://www.share-online.biz/dl/N5HMRE2P8YJU
http://www.share-online.biz/dl/QHIMRE2PIIPQ
http://www.share-online.biz/dl/6VJMRE2PKSW
http://www.share-online.biz/dl/TAJMRE2PXH
http://www.share-online.biz/dl/JKKMRE2P6FL
http://www.share-online.biz/dl/MTLMRE2PO3
http://www.share-online.biz/dl/IZMMRE2PIG
http://www.share-online.biz/dl/IYLMRE2PNMIS
http://www.share-online.biz/dl/N8NMRE2PAFH8
http://www.share-online.biz/dl/NMNMRE2P5D4B


[Sci-Fi] I Am Legend 2007 2160p UHD BluRay x265 - DEPTH
Download links:


Related News:


Add comments

Your Name:
Your E-Mail:

Enter the words shown in captcha:


Attention!!! Comments moderated and will not appear immediately. Do not post a comment twice.