[Sci-Fi] I Am Legend 2007 2160p BluRay x265 10bit SDR DTS-HD MA 5 1 - SWTYBLZ

I.Am.Legend.2007.2160p.BluRay.x265.10bit.SDR.DTS-HD.MA.5.1-SWTYBLZ

Title: I Am Legend (2007)
IMDB Rating: 7.2/10 from 589715 users Updated : 2018-01-10
Rotten Rating: 6.3/10
RottenTomatoes: [fresh!] 69% [audience liked it!] 68%
Genres: Drama , Horror , Sci-Fi , Thriller
Actors: Will Smith , Alice Braga , Charlie Tahan , Salli Richardson-Whitfield , Willow Smith , Darrell Foster , April Grace , Dash Mihok , Joanna Numata ,
Abbey , Kona , Samuel Glen , James McCauley , Marin Ireland , Pedro Mojica
Director: Francis Lawrence
IMDB Runtime: 101
Year: 2007
Plot: Robert Neville is a scientist who was unable to stop the spread of the terrible virus that was incurable and man-made. Immune| Neville is now the last human survivor
in what is left of New York City and perhaps the world. For three years| Neville has faithfully sent out daily radio messages| desperate to find any other survivors
who might be out there. But he is not alone. Mutant victims of the plague -- The Infected -- lurk in the shadows... watching Neville's every move... waiting for him
to make a fatal mistake. Perhaps mankind's last| best hope| Neville is driven by only one remaining mission: to find a way to reverse the effects of the virus using
his own immune blood. But he knows he is outnumbered... and quickly running out of time.

Media info:

Code:

Video
ID                                      : 1
Format                                  : HEVC
Format/Info                              : High Efficiency Video Coding
Format profile                          : Main 10@L5.1@High
Codec ID                                : V_MPEGH/ISO/HEVC
Duration                                : 1 h 40 min
Bit rate                                : 29.5 Mb/s
Width                                    : 3 840 pixels
Height                                  : 1 600 pixels
Display aspect ratio                    : 2.40:1
Frame rate mode                          : Constant
Frame rate                              : 23.976 (24000/1001) FPS
Color space                              : YUV
Chroma subsampling                      : 4:2:0
Bit depth                                : 10 bits
Bits/(Pixel*Frame)                      : 0.200
Stream size                              : 20.7 GiB (87%)
Title                                    : I.Am.Legend.2007.2160p.BluRay.x265.10bit.SDR.DTS-HD.MA.5.1-SWTYBLZ
Writing library                          : x265 2.5+4-b4a5bcfe29c7:[Windows][GCC 4.9.3][64 bit] 10bit
Encoding settings                        : cpuid=1173503 / frame-threads=16 / numa-pools=24,24,24,24 / wpp / no-pmode / no-pme / no-psnr / no-ssim / log-level=2 / input-csp=1 / input-res=3840x1600 / interlace=0 / total-frames=0 / level-idc=51 / high-tier=1 / uhd-bd=0 / ref=3 / no-allow-non-conformance / repeat-headers / annexb / aud / hrd / info / hash=0 / no-temporal-layers / no-open-gop / min-keyint=1 / keyint=24 / bframes=4 / b-adapt=2 / b-pyramid / bframe-bias=0 / rc-lookahead=25 / lookahead-slices=4 / scenecut=40 / no-intra-refresh / ctu=64 / min-cu-size=8 / no-rect / no-amp / max-tu-size=32 / tu-inter-depth=1 / tu-intra-depth=1 / limit-tu=0 / rdoq-level=0 / dynamic-rd=0.00 / no-ssim-rd / signhide / no-tskip / nr-intra=0 / nr-inter=0 / no-constrained-intra / strong-intra-smoothing / max-merge=2 / limit-refs=3 / no-limit-modes / me=1 / subme=2 / merange=57 / temporal-mvp / weightp / no-weightb / no-analyze-src-pics / deblock=0:0 / no-sao / no-sao-non-deblock / rd=3 / no-early-skip / rskip / no-fast-intra / no-tskip-fast / no-cu-lossless / no-b-intra / rdpenalty=0 / psy-rd=2.00 / psy-rdoq=0.00 / no-rd-refine / analysis-reuse-mode=0 / no-lossless / cbqpoffs=0 / crqpoffs=0 / rc=crf / crf=16.0 / qcomp=0.60 / qpstep=4 / stats-write=0 / stats-read=0 / vbv-maxrate=160000 / vbv-bufsize=160000 / vbv-init=0.9 / crf-max=0.0 / crf-min=0.0 / ipratio=1.40 / pbratio=1.30 / aq-mode=1 / aq-strength=1.00 / cutree / zone-count=0 / no-strict-cbr / qg-size=32 / no-rc-grain / qpmax=69 / qpmin=0 / no-const-vbv / sar=1 / overscan=0 / videoformat=5 / range=0 / colorprim=2 / transfer=2 / colormatrix=2 / chromaloc=0 / display-window=0 / max-cll=0,0 / min-luma=0 / max-luma=1023 / log2-max-poc-lsb=8 / vui-timing-info / vui-hrd-info / slices=1 / opt-qp-pps / opt-ref-list-length-pps / no-multi-pass-opt-rps / scenecut-bias=0.05 / no-opt-cu-delta-qp / no-aq-motion / no-hdr / no-hdr-opt / no-dhdr10-opt / analysis-reuse-level=5 / scale-factor=0 / refine-intra=0 / refine-inter=0 / refine-mv=0 / no-limit-sao / ctu-info=0
Default                                  : Yes
Forced                                  : No

Audio #1
ID                                      : 2
Format                                  : DTS
Format/Info                              : Digital Theater Systems
Format profile                          : MA / Core
Codec ID                                : A_DTS
Duration                                : 1 h 40 min
Bit rate mode                            : Variable / Constant
Bit rate                                : 3 623 kb/s / 1 509 kb/s
Channel(s)                              : 6 channels
Channel positions                        : Front: L C R, Side: L R, LFE
Sampling rate                            : 48.0 kHz
Frame rate                              : 93.750 FPS (512 SPF)
Bit depth                                : 24 bits
Compression mode                        : Lossless / Lossy
Delay relative to video                  : 5 ms
Stream size                              : 2.54 GiB (11%)
Title                                    : I.Am.Legend.2007.2160p.BluRay.x265.10bit.SDR.DTS-HD.MA.5.1-SWTYBLZ
Language                                : English
Default                                  : Yes
Forced                                  : No

Audio #2
ID                                      : 3
Format                                  : AC-3
Format/Info                              : Audio Coding 3
Codec ID                                : A_AC3
Duration                                : 1 h 40 min
Bit rate mode                            : Constant
Bit rate                                : 640 kb/s
Channel(s)                              : 6 channels
Channel positions                        : Front: L C R, Side: L R, LFE
Sampling rate                            : 48.0 kHz
Frame rate                              : 31.250 FPS (1536 SPF)
Bit depth                                : 16 bits
Compression mode                        : Lossy
Stream size                              : 460 MiB (2%)
Title                                    : I.Am.Legend.2007.2160p.BluRay.x265.10bit.SDR.DTS-HD.MA.5.1-SWTYBLZ
Language                                : English
Service kind                            : Complete Main
Default                                  : No
Forced                                  : No

Text #1
ID                                      : 4
Format                                  : UTF-8
Codec ID                                : S_TEXT/UTF8
Codec ID/Info                            : UTF-8 Plain Text
Duration                                : 1 h 40 min
Bit rate                                : 30 b/s
Count of elements                        : 658
Stream size                              : 22.6 KiB (0%)
Title                                    : English-SRT
Language                                : English
Default                                  : Yes
Forced                                  : No

Text #2
ID                                      : 5
Format                                  : PGS
Muxing mode                              : zlib
Codec ID                                : S_HDMV/PGS
Codec ID/Info                            : Picture based subtitle format used on BDs/HD-DVDs
Duration                                : 1 h 40 min
Bit rate                                : 19.3 kb/s
Count of elements                        : 1494
Stream size                              : 13.8 MiB (0%)
Title                                    : English-PGS
Language                                : English
Default                                  : No
Forced                                  : No

Text #3
ID                                      : 6
Format                                  : PGS
Muxing mode                              : zlib
Codec ID                                : S_HDMV/PGS
Codec ID/Info                            : Picture based subtitle format used on BDs/HD-DVDs
Duration                                : 1 h 40 min
Bit rate                                : 12.0 kb/s
Count of elements                        : 1096
Stream size                              : 8.63 MiB (0%)
Title                                    : French-PGS
Language                                : French
Default                                  : No
Forced                                  : No

Text #4
ID                                      : 7
Format                                  : PGS
Muxing mode                              : zlib
Codec ID                                : S_HDMV/PGS
Codec ID/Info                            : Picture based subtitle format used on BDs/HD-DVDs
Duration                                : 1 h 40 min
Bit rate                                : 21.4 kb/s
Count of elements                        : 1526
Stream size                              : 15.3 MiB (0%)
Title                                    : German-PGS
Language                                : German
Default                                  : No
Forced                                  : No

Text #5
ID                                      : 8
Format                                  : PGS
Muxing mode                              : zlib
Codec ID                                : S_HDMV/PGS
Codec ID/Info                            : Picture based subtitle format used on BDs/HD-DVDs
Duration                                : 1 h 40 min
Bit rate                                : 18.7 kb/s
Count of elements                        : 1440
Stream size                              : 13.4 MiB (0%)
Title                                    : Italian-PGS
Language                                : Italian
Default                                  : No
Forced                                  : No

Text #6
ID                                      : 9
Format                                  : PGS
Muxing mode                              : zlib
Codec ID                                : S_HDMV/PGS
Codec ID/Info                            : Picture based subtitle format used on BDs/HD-DVDs
Duration                                : 1 h 40 min
Bit rate                                : 15.8 kb/s
Count of elements                        : 1312
Stream size                              : 11.4 MiB (0%)
Title                                    : Spanish-PGS
Language                                : Spanish
Default                                  : No
Forced                                  : No

Text #7
ID                                      : 10
Format                                  : PGS
Muxing mode                              : zlib
Codec ID                                : S_HDMV/PGS
Codec ID/Info                            : Picture based subtitle format used on BDs/HD-DVDs
Duration                                : 1 h 40 min
Bit rate                                : 12.3 kb/s
Count of elements                        : 1004
Stream size                              : 8.83 MiB (0%)
Title                                    : Dutch-PGS
Language                                : Dutch
Default                                  : No
Forced                                  : No

Text #8
ID                                      : 11
Format                                  : PGS
Muxing mode                              : zlib
Codec ID                                : S_HDMV/PGS
Codec ID/Info                            : Picture based subtitle format used on BDs/HD-DVDs
Duration                                : 1 h 40 min
Bit rate                                : 14.8 kb/s
Count of elements                        : 1316
Stream size                              : 10.6 MiB (0%)
Title                                    : Chinese-PGS
Language                                : Chinese
Default                                  : No
Forced                                  : No

Text #9
ID                                      : 12
Format                                  : PGS
Muxing mode                              : zlib
Codec ID                                : S_HDMV/PGS
Codec ID/Info                            : Picture based subtitle format used on BDs/HD-DVDs
Duration                                : 1 h 40 min
Bit rate                                : 14.6 kb/s
Count of elements                        : 1340
Stream size                              : 10.5 MiB (0%)
Title                                    : Chinese-PGS
Language                                : Chinese
Default                                  : No
Forced                                  : No

Text #10
ID                                      : 13
Format                                  : PGS
Muxing mode                              : zlib
Codec ID                                : S_HDMV/PGS
Codec ID/Info                            : Picture based subtitle format used on BDs/HD-DVDs
Duration                                : 1 h 39 min
Bit rate                                : 9 052 b/s
Count of elements                        : 1180
Stream size                              : 6.44 MiB (0%)
Title                                    : Korean-PGS
Language                                : Korean
Default                                  : No
Forced                                  : No

Text #11
ID                                      : 14
Format                                  : PGS
Muxing mode                              : zlib
Codec ID                                : S_HDMV/PGS
Codec ID/Info                            : Picture based subtitle format used on BDs/HD-DVDs
Duration                                : 1 h 40 min
Bit rate                                : 16.3 kb/s
Count of elements                        : 1316
Stream size                              : 11.7 MiB (0%)
Title                                    : Spanish-PGS
Language                                : Spanish
Default                                  : No
Forced                                  : No

Text #12
ID                                      : 15
Format                                  : PGS
Muxing mode                              : zlib
Codec ID                                : S_HDMV/PGS
Codec ID/Info                            : Picture based subtitle format used on BDs/HD-DVDs
Duration                                : 1 h 40 min
Bit rate                                : 16.4 kb/s
Count of elements                        : 1276
Stream size                              : 11.8 MiB (0%)
Title                                    : Portuguese-PGS
Language                                : Portuguese
Default                                  : No
Forced                                  : No

Text #13
ID                                      : 16
Format                                  : PGS
Muxing mode                              : zlib
Codec ID                                : S_HDMV/PGS
Codec ID/Info                            : Picture based subtitle format used on BDs/HD-DVDs
Duration                                : 1 h 40 min
Bit rate                                : 8 959 b/s
Count of elements                        : 1330
Stream size                              : 6.43 MiB (0%)
Title                                    : Arabic-PGS
Language                                : Arabic
Default                                  : No
Forced                                  : No

Text #14
ID                                      : 17
Format                                  : PGS
Muxing mode                              : zlib
Codec ID                                : S_HDMV/PGS
Codec ID/Info                            : Picture based subtitle format used on BDs/HD-DVDs
Duration                                : 1 h 40 min
Bit rate                                : 12.1 kb/s
Count of elements                        : 1184
Stream size                              : 8.68 MiB (0%)
Title                                    : Czech-PGS
Language                                : Czech
Default                                  : No
Forced                                  : No

Text #15
ID                                      : 18
Format                                  : PGS
Muxing mode                              : zlib
Codec ID                                : S_HDMV/PGS
Codec ID/Info                            : Picture based subtitle format used on BDs/HD-DVDs
Duration                                : 1 h 39 min
Bit rate                                : 12.1 kb/s
Count of elements                        : 882
Stream size                              : 8.59 MiB (0%)
Title                                    : Danish-PGS
Language                                : Danish
Default                                  : No
Forced                                  : No

Text #16
ID                                      : 19
Format                                  : PGS
Muxing mode                              : zlib
Codec ID                                : S_HDMV/PGS
Codec ID/Info                            : Picture based subtitle format used on BDs/HD-DVDs
Duration                                : 1 h 40 min
Bit rate                                : 12.5 kb/s
Count of elements                        : 1008
Stream size                              : 8.98 MiB (0%)
Title                                    : Finnish-GPS
Language                                : Finnish
Default                                  : No
Forced                                  : No

Text #17
ID                                      : 20
Format                                  : PGS
Muxing mode                              : zlib
Codec ID                                : S_HDMV/PGS
Codec ID/Info                            : Picture based subtitle format used on BDs/HD-DVDs
Duration                                : 1 h 40 min
Bit rate                                : 13.7 kb/s
Count of elements                        : 1210
Stream size                              : 9.84 MiB (0%)
Title                                    : Hungarian-PGS
Language                                : Hungarian
Default                                  : No
Forced                                  : No

Text #18
ID                                      : 21
Format                                  : PGS
Muxing mode                              : zlib
Codec ID                                : S_HDMV/PGS
Codec ID/Info                            : Picture based subtitle format used on BDs/HD-DVDs
Duration                                : 1 h 39 min
Bit rate                                : 13.6 kb/s
Count of elements                        : 1120
Stream size                              : 9.67 MiB (0%)
Title                                    : Norwegian-PGS
Language                                : Norwegian
Default                                  : No
Forced                                  : No

Text #19
ID                                      : 22
Format                                  : PGS
Muxing mode                              : zlib
Codec ID                                : S_HDMV/PGS
Codec ID/Info                            : Picture based subtitle format used on BDs/HD-DVDs
Duration                                : 1 h 40 min
Bit rate                                : 15.5 kb/s
Count of elements                        : 1306
Stream size                              : 11.1 MiB (0%)
Title                                    : Polish_PGS
Language                                : Polish
Default                                  : No
Forced                                  : No

Text #20
ID                                      : 23
Format                                  : PGS
Muxing mode                              : zlib
Codec ID                                : S_HDMV/PGS
Codec ID/Info                            : Picture based subtitle format used on BDs/HD-DVDs
Duration                                : 1 h 40 min
Bit rate                                : 16.2 kb/s
Count of elements                        : 1292
Stream size                              : 11.6 MiB (0%)
Title                                    : Portuguese-PGS
Language                                : Portuguese
Default                                  : No
Forced                                  : No

Text #21
ID                                      : 24
Format                                  : PGS
Muxing mode                              : zlib
Codec ID                                : S_HDMV/PGS
Codec ID/Info                            : Picture based subtitle format used on BDs/HD-DVDs
Duration                                : 1 h 40 min
Bit rate                                : 18.2 kb/s
Count of elements                        : 1388
Stream size                              : 13.1 MiB (0%)
Title                                    : Russian-PGS
Language                                : Russian
Default                                  : No
Forced                                  : No

Text #22
ID                                      : 25
Format                                  : PGS
Muxing mode                              : zlib
Codec ID                                : S_HDMV/PGS
Codec ID/Info                            : Picture based subtitle format used on BDs/HD-DVDs
Duration                                : 1 h 40 min
Bit rate                                : 13.3 kb/s
Count of elements                        : 976
Stream size                              : 9.57 MiB (0%)
Title                                    : Swedish-PGS
Language                                : Swedish
Default                                  : No
Forced                                  : No

Text #23
ID                                      : 26
Format                                  : PGS
Muxing mode                              : zlib
Codec ID                                : S_HDMV/PGS
Codec ID/Info                            : Picture based subtitle format used on BDs/HD-DVDs
Duration                                : 1 h 33 min
Bit rate                                : 13.1 kb/s
Count of elements                        : 1894
Stream size                              : 8.80 MiB (0%)
Title                                    : Japanese-PGS
Language                                : Japanese
Default                                  : No
Forced                                  : No

Menu
00:00:00.000                            : en:Chapter 1
00:02:14.134                            : en:Chapter 2
00:07:56.476                            : en:Chapter 3
00:12:07.393                            : en:Chapter 4
00:15:15.706                            : en:Chapter 5
00:18:20.099                            : en:Chapter 6
00:23:22.526                            : en:Chapter 7
00:26:42.183                            : en:Chapter 8
00:31:49.282                            : en:Chapter 9
00:34:15.595                            : en:Chapter 10
00:37:45.805                            : en:Chapter 11
00:39:16.145                            : en:Chapter 12
00:44:06.644                            : en:Chapter 13
00:48:50.928                            : en:Chapter 14
00:53:12.731                            : en:Chapter 15
00:56:54.786                            : en:Chapter 16
00:59:41.452                            : en:Chapter 17
01:02:41.090                            : en:Chapter 18
01:04:30.658                            : en:Chapter 19
01:09:18.487                            : en:Chapter 20
01:11:21.902                            : en:Chapter 21
01:17:38.779                            : en:Chapter 22
01:20:14.935                            : en:Chapter 23
01:24:10.920                            : en:Chapter 24
01:27:59.691                            : en:Chapter 25
01:29:48.049                            : en:Chapter 26
01:31:48.002                            : en:Chapter 27

NFO / Screenshots:

Code:

http://imdb.com/title/tt0480249/
https://www.youtube.com/watch?v=sFNPNT_4Qww

SWEATY BALLZ presents

I.Am.Legend.2007.2160p.BluRay.x265.10bit.SDR.DTS-HD.MA.5.1-SWTYBLZ

Converted from 10 bit HDR to 10 bit SDR using tripple mixed Hable-Reinhard-JJ per scene+frame analysis algorithm

Screenshots are 8bit SDR because browsers dont support HDR or 10bit files

http://imagecurl.com/viewer.php?file=94511403707827498387.png
http://imagecurl.com/images/94511403707827498387_thumb.png
http://imagecurl.com/viewer.php?file=75625029842754152265.png
http://imagecurl.com/images/75625029842754152265_thumb.png
http://imagecurl.com/viewer.php?file=99838894925676040910.png
http://imagecurl.com/images/99838894925676040910_thumb.png
http://imagecurl.com/viewer.php?file=37100543407587504588.png
http://imagecurl.com/images/37100543407587504588_thumb.png
http://imagecurl.com/viewer.php?file=93835339252128897891.png
http://imagecurl.com/images/93835339252128897891_thumb.png
http://imagecurl.com/viewer.php?file=11470708506713395347.png
http://imagecurl.com/images/11470708506713395347_thumb.png
http://imagecurl.com/viewer.php?file=80756863905573815682.png
http://imagecurl.com/images/80756863905573815682_thumb.png

Language(Text): is in the mediainfo
Language(Audio): English
Format: mkv
Size: 24.06 GB
No Pass

Download via Share-Online

Code:

http://www.share-online.biz/dl/9EDCNG2P22
http://www.share-online.biz/dl/MCECNG2PW8
http://www.share-online.biz/dl/80FCNG2PYQ
http://www.share-online.biz/dl/35GCNG2P2G
http://www.share-online.biz/dl/UDHCNG2PDB
http://www.share-online.biz/dl/XDHCNG2PYS
http://www.share-online.biz/dl/LCICNG2P5ZD
http://www.share-online.biz/dl/C0JCNG2PX41
http://www.share-online.biz/dl/O7JCNG2PG63Q
http://www.share-online.biz/dl/4DKCNG2PJD
http://www.share-online.biz/dl/ODLCNG2PQ9
http://www.share-online.biz/dl/60LCNG2P49F
http://www.share-online.biz/dl/8TMCNG2P2YZ
http://www.share-online.biz/dl/VTNCNG2POV
http://www.share-online.biz/dl/WQOCNG2PAW
http://www.share-online.biz/dl/1JOCNG2PL4
http://www.share-online.biz/dl/GCPCNG2P15G
http://www.share-online.biz/dl/USQCNG2PA1Q
http://www.share-online.biz/dl/FWQCNG2PLQ
http://www.share-online.biz/dl/LCRCNG2PYQ5N
http://www.share-online.biz/dl/6PSCNG2PXSA
http://www.share-online.biz/dl/POTCNG2PCZ3
http://www.share-online.biz/dl/YDTCNG2PGC2V
http://www.share-online.biz/dl/FHUCNG2PX3
http://www.share-online.biz/dl/5OVCNG2PW27
http://www.share-online.biz/dl/L5WCNG2P28C5
http://www.share-online.biz/dl/8TWCNG2PQKC
http://www.share-online.biz/dl/XRXCNG2P9KW
http://www.share-online.biz/dl/S2YCNG2PPJ8
http://www.share-online.biz/dl/A2YCNG2PLO
http://www.share-online.biz/dl/YLZCNG2PAIXM
http://www.share-online.biz/dl/GN0DNG2PH1
http://www.share-online.biz/dl/0H0DNG2PK8Y
http://www.share-online.biz/dl/6Y2DNG2P35
http://www.share-online.biz/dl/8G1DNG2P1E0
http://www.share-online.biz/dl/HJ3DNG2P2S
http://www.share-online.biz/dl/KU3DNG2PW4WT
http://www.share-online.biz/dl/YZ4DNG2PWTQ
http://www.share-online.biz/dl/YQ5DNG2P0F
http://www.share-online.biz/dl/FO6DNG2P3O
http://www.share-online.biz/dl/3L7DNG2PKI3
http://www.share-online.biz/dl/YW7DNG2P8T
http://www.share-online.biz/dl/HW8DNG2PMZUP
http://www.share-online.biz/dl/609DNG2P2UD
http://www.share-online.biz/dl/YIADNG2PIY
http://www.share-online.biz/dl/I5BDNG2PAB
http://www.share-online.biz/dl/R3ADNG2P7VK
http://www.share-online.biz/dl/W7CDNG2PKY
http://www.share-online.biz/dl/6JCDNG2PCWC
http://www.share-online.biz/dl/2VDDNG2P94
http://www.share-online.biz/dl/N7EDNG2PRF6
http://www.share-online.biz/dl/YPFDNG2PTX
http://www.share-online.biz/dl/HDFDNG2PYP4S
http://www.share-online.biz/dl/G3HDNG2P5XHC
http://www.share-online.biz/dl/AEGDNG2PVH2
http://www.share-online.biz/dl/5YIDNG2PIUTK
http://www.share-online.biz/dl/QMIDNG2PEM
http://www.share-online.biz/dl/HRJDNG2P45H
http://www.share-online.biz/dl/UEJDNG2PNKM1
http://www.share-online.biz/dl/KFKDNG2PJVS
http://www.share-online.biz/dl/U3LDNG2PRUKT
http://www.share-online.biz/dl/C6MDNG2PW9
http://www.share-online.biz/dl/BXNDNG2PC9
http://www.share-online.biz/dl/S9ODNG2P4GMW
http://www.share-online.biz/dl/50NDNG2PWKO


[Sci-Fi] I Am Legend 2007 2160p BluRay x265 10bit SDR DTS-HD MA 5 1 - SWTYBLZ
Download links:


Related News:


Add comments

Your Name:
Your E-Mail:

Enter the words shown in captcha:


Attention!!! Comments moderated and will not appear immediately. Do not post a comment twice.