[Fantasy] Harry Potter and the Deathly Hallows Part 1 2010 2160p UHD BluRay x265 - DEPTH

Harry.Potter.and.the.Deathly.Hallows.Part.1.2010.2 160p.BluRay.x265.10bit.HDR.DTS-X.7.1-DEPTH

Title: Harry Potter and the Deathly Hallows: Part 1 (2010)
IMDB Rating: 7.7/10 from 375093 users Updated : 2017-12-23
Rotten Rating: 7.2/10
RottenTomatoes: [fresh!] 78% [audience liked it!] 85%
Genres: Adventure , Family , Fantasy , Mystery
Actors: Daniel Radcliffe , Emma Watson , Rupert Grint , Bill Nighy , Richard Griffiths , Harry Melling , Julie Walters , Bonnie Wright , Ian Kelly ,
Michelle Fairley , Fiona Shaw , Alan Rickman , Carolyn Pickles , Ralph Fiennes , Helena Bonham Carter
Director: David Yates
IMDB Runtime: 146
Year: 2010
Plot: Voldemort's power is growing stronger. He now has control over the Ministry of Magic and Hogwarts. Harry| Ron| and Hermione decide to finish Dumbledore's work and
find the rest of the Horcruxes to defeat the Dark Lord. But little hope remains for the Trio| and the rest of the Wizarding World| so everything they do must go as
planned.
Rotten Plot: It can't help but feel like the prelude it is, but Deathly Hallows: Part I is a beautifully filmed, emotionally satisfying penultimate installment for the Harry
Potter series.

Media info:

Code:

Video
ID                                      : 1
Format                                  : HEVC
Format/Info                              : High Efficiency Video Coding
Format profile                          : Main 10@L5.1@High
Codec ID                                : V_MPEGH/ISO/HEVC
Duration                                : 2 h 26 min
Bit rate                                : 15.1 Mb/s
Width                                    : 3 840 pixels
Height                                  : 1 600 pixels
Display aspect ratio                    : 2.40:1
Frame rate mode                          : Constant
Frame rate                              : 23.976 (24000/1001) FPS
Color space                              : YUV
Chroma subsampling                      : 4:2:0 (Type 2)
Bit depth                                : 10 bits
Bits/(Pixel*Frame)                      : 0.103
Stream size                              : 15.5 GiB (80%)
Writing library                          : x265 2.6+22-ff02513b92c0:[Windows][GCC 6.3.0][64 bit] 10bit
Encoding settings                        : cpuid=1050111 / frame-threads=4 / numa-pools=15,15 / wpp / no-pmode / no-pme / no-psnr / no-ssim / log-level=2 / input-csp=1 / input-res=3840x1600 / interlace=0 / total-frames=210156 / level-idc=51 / high-tier=1 / uhd-bd=0 / ref=4 / no-allow-non-conformance / repeat-headers / annexb / aud / hrd / info / hash=0 / no-temporal-layers / no-open-gop / min-keyint=1 / keyint=24 / gop-lookahead=0 / bframes=4 / b-adapt=2 / b-pyramid / bframe-bias=0 / rc-lookahead=25 / lookahead-slices=4 / scenecut=40 / radl=0 / no-intra-refresh / ctu=64 / min-cu-size=8 / rect / no-amp / max-tu-size=32 / tu-inter-depth=1 / tu-intra-depth=1 / limit-tu=0 / rdoq-level=2 / dynamic-rd=0.00 / no-ssim-rd / signhide / no-tskip / nr-intra=0 / nr-inter=0 / no-constrained-intra / no-strong-intra-smoothing / max-merge=3 / limit-refs=3 / limit-modes / me=3 / subme=3 / merange=57 / temporal-mvp / weightp / no-weightb / no-analyze-src-pics / deblock=-3:-3 / no-sao / no-sao-non-deblock / rd=4 / no-early-skip / rskip / no-fast-intra / no-tskip-fast / no-cu-lossless / no-b-intra / no-splitrd-skip / rdpenalty=0 / psy-rd=2.00 / psy-rdoq=1.00 / no-rd-refine / no-lossless / cbqpoffs=0 / crqpoffs=0 / rc=crf / crf=17.0 / qcomp=0.60 / qpstep=4 / stats-write=0 / stats-read=0 / vbv-maxrate=160000 / vbv-bufsize=160000 / vbv-init=0.9 / crf-max=0.0 / crf-min=0.0 / ipratio=1.40 / pbratio=1.30 / aq-mode=1 / aq-strength=1.00 / cutree / zone-count=0 / no-strict-cbr / qg-size=32 / no-rc-grain / qpmax=69 / qpmin=0 / no-const-vbv / sar=1 / overscan=0 / videoformat=5 / range=0 / colorprim=9 / transfer=16 / colormatrix=9 / chromaloc=1 / chromaloc-top=2 / chromaloc-bottom=2 / display-window=0 / master-display=G(13250,34500)B(7500,3000)R(34000,16000)WP(15635,16450)L(40000000,50) / max-cll=2632,431 / min-luma=0 / max-luma=1023 / log2-max-poc-lsb=8 / vui-timing-info / vui-hrd-info / slices=1 / no-opt-qp-pps / no-opt-ref-list-length-pps / no-multi-pass-opt-rps / scenecut-bias=0.05 / no-opt-cu-delta-qp / no-aq-motion / hdr / hdr-opt / no-dhdr10-opt / analysis-save=(null) / analysis-load=(null) / analysis-reuse-level=5 / scale-factor=0 / refine-intra=0 / refine-inter=0 / refine-mv=0 / no-limit-sao / ctu-info=0 / no-lowpass-dct / refine-mv-type=0 / copy-pic=1
Default                                  : Yes
Forced                                  : No
Color range                              : Limited
Color primaries                          : BT.2020
Transfer characteristics                : PQ
Matrix coefficients                      : BT.2020 non-constant
Mastering display color primaries        : Display P3
Mastering display luminance              : min: 0.0050 cd/m2, max: 4000 cd/m2
Maximum Content Light Level              : 2632 cd/m2
Maximum Frame-Average Light Level        : 431 cd/m2

Audio
ID                                      : 2
Format                                  : DTS
Format/Info                              : Digital Theater Systems
Format profile                          : X / MA / Core
Codec ID                                : A_DTS
Duration                                : 2 h 26 min
Bit rate mode                            : Variable / Variable / Constant
Bit rate                                : 3 683 kb/s / 3 683 kb/s / 1 509 kb/s
Channel(s)                              : Object Based / 8 channels / 6 channels
Channel positions                        : Object Based / Front: L C R, Side: L R, Back: L R, LFE / Front: L C R, Side: L R, LFE
Sampling rate                            :  / 48.0 kHz / 48.0 kHz
Frame rate                              : 93.750 FPS (512 SPF)
Bit depth                                :  / 24 bits / 24 bits
Compression mode                        :  / Lossless / Lossy
Stream size                              : 3.76 GiB (20%)
Language                                : English
Default                                  : Yes
Forced                                  : No

Text #1
ID                                      : 3
Format                                  : PGS
Muxing mode                              : zlib
Codec ID                                : S_HDMV/PGS
Codec ID/Info                            : Picture based subtitle format used on BDs/HD-DVDs
Duration                                : 2 h 25 min
Bit rate                                : 27.0 kb/s
Count of elements                        : 2892
Stream size                              : 28.1 MiB (0%)
Title                                    : SDH
Language                                : English
Default                                  : No
Forced                                  : No

Text #2
ID                                      : 4
Format                                  : PGS
Muxing mode                              : zlib
Codec ID                                : S_HDMV/PGS
Codec ID/Info                            : Picture based subtitle format used on BDs/HD-DVDs
Duration                                : 2 h 25 min
Bit rate                                : 21.4 kb/s
Count of elements                        : 2492
Stream size                              : 22.3 MiB (0%)
Language                                : Spanish
Default                                  : No
Forced                                  : No

Menu
00:00:00.000                            : en:00:00:00.000
00:04:18.467                            : en:00:04:18.467
00:09:46.586                            : en:00:09:46.586
00:15:16.165                            : en:00:15:16.165
00:19:13.527                            : en:00:19:13.527
00:26:04.188                            : en:00:26:04.188
00:31:37.729                            : en:00:31:37.729
00:35:43.266                            : en:00:35:43.266
00:41:37.495                            : en:00:41:37.495
00:45:45.576                            : en:00:45:45.576
00:50:14.053                            : en:00:50:14.053
00:55:02.674                            : en:00:55:02.674
00:58:31.133                            : en:00:58:31.133
01:03:41.317                            : en:01:03:41.317
01:10:02.156                            : en:01:10:02.156
01:14:30.883                            : en:01:14:30.883
01:18:48.807                            : en:01:18:48.807
01:22:17.558                            : en:01:22:17.558
01:24:55.048                            : en:01:24:55.048
01:28:03.153                            : en:01:28:03.153
01:32:34.132                            : en:01:32:34.132
01:37:40.188                            : en:01:37:40.188
01:42:37.526                            : en:01:42:37.526
01:47:54.093                            : en:01:47:54.093
01:53:48.071                            : en:01:53:48.071
01:57:30.919                            : en:01:57:30.919
02:01:27.947                            : en:02:01:27.947
02:05:42.118                            : en:02:05:42.118
02:09:42.692                            : en:02:09:42.692
02:13:15.988                            : en:02:13:15.988

NFO / Screenshots:

Code:

http://imdb.com/title/tt0926084/
https://www.youtube.com/watch?v=9hXH0Ackz6w

http://imagecurl.com/viewer.php?file=50096081943228658521.png
http://imagecurl.com/images/50096081943228658521_thumb.png
http://imagecurl.com/viewer.php?file=50216123717680747440.png
http://imagecurl.com/images/50216123717680747440_thumb.png
http://imagecurl.com/viewer.php?file=52541441972317581071.png
http://imagecurl.com/images/52541441972317581071_thumb.png
http://imagecurl.com/viewer.php?file=17851001830932649219.png
http://imagecurl.com/images/17851001830932649219_thumb.png
http://imagecurl.com/viewer.php?file=54596463123381092622.png
http://imagecurl.com/images/54596463123381092622_thumb.png
http://imagecurl.com/viewer.php?file=37967497854085682477.png
http://imagecurl.com/images/37967497854085682477_thumb.png

Language(Text): is in the mediainfo
Language(Audio): English
Format: mkv
Size: 19.24 GB
No Pass

Download via Share-Online

Code:

http://www.share-online.biz/dl/MI79H62POY
http://www.share-online.biz/dl/QQ79H62PB2B0
http://www.share-online.biz/dl/PV89H62P98
http://www.share-online.biz/dl/BA99H62PWWUI
http://www.share-online.biz/dl/Q799H62P1XK
http://www.share-online.biz/dl/G2A9H62PN8LM
http://www.share-online.biz/dl/WKA9H62PCHI
http://www.share-online.biz/dl/81B9H62P520
http://www.share-online.biz/dl/HYC9H62P9R
http://www.share-online.biz/dl/D2C9H62P2A
http://www.share-online.biz/dl/6DE9H62P1EF
http://www.share-online.biz/dl/50D9H62PV6
http://www.share-online.biz/dl/AVE9H62P7PC4
http://www.share-online.biz/dl/DXF9H62PFF6N
http://www.share-online.biz/dl/B3F9H62PWHRG
http://www.share-online.biz/dl/V4G9H62P614Z
http://www.share-online.biz/dl/02H9H62PTC2
http://www.share-online.biz/dl/UDH9H62P9AP
http://www.share-online.biz/dl/HBI9H62PBCU8
http://www.share-online.biz/dl/WNJ9H62PJD
http://www.share-online.biz/dl/S0J9H62PB7
http://www.share-online.biz/dl/3SK9H62PWU
http://www.share-online.biz/dl/M7M9H62P0NR
http://www.share-online.biz/dl/XZL9H62PEAP2
http://www.share-online.biz/dl/UXL9H62P2WO
http://www.share-online.biz/dl/C3M9H62PLI6
http://www.share-online.biz/dl/34N9H62PTF
http://www.share-online.biz/dl/F6O9H62PMNSF
http://www.share-online.biz/dl/GSO9H62P3V2Q
http://www.share-online.biz/dl/2TP9H62P10
http://www.share-online.biz/dl/E5Q9H62PS0QP
http://www.share-online.biz/dl/7MS9H62PTAZ
http://www.share-online.biz/dl/Q1R9H62PFU
http://www.share-online.biz/dl/UXS9H62PMY4
http://www.share-online.biz/dl/F4T9H62PK3
http://www.share-online.biz/dl/NBT9H62PE5AK
http://www.share-online.biz/dl/QPU9H62PQ3
http://www.share-online.biz/dl/M9V9H62PNQ
http://www.share-online.biz/dl/61V9H62P5M
http://www.share-online.biz/dl/CIW9H62PVS
http://www.share-online.biz/dl/JQX9H62PYRPQ
http://www.share-online.biz/dl/65W9H62PIJ
http://www.share-online.biz/dl/KUY9H62PMBOP
http://www.share-online.biz/dl/UMZ9H62PRL
http://www.share-online.biz/dl/RDZ9H62PICHM
http://www.share-online.biz/dl/PDY9H62PYL
http://www.share-online.biz/dl/330AH62P4G
http://www.share-online.biz/dl/1Q1AH62PYK
http://www.share-online.biz/dl/ZD1AH62PO1
http://www.share-online.biz/dl/J33AH62P7XP
http://www.share-online.biz/dl/JE3AH62P0CBT
http://www.share-online.biz/dl/1M2AH62POKHT


[Fantasy] Harry Potter and the Deathly Hallows Part 1 2010 2160p UHD BluRay x265 - DEPTH
Download links:


Related News:


Add comments

Your Name:
Your E-Mail:

Enter the words shown in captcha:


Attention!!! Comments moderated and will not appear immediately. Do not post a comment twice.