[Fantasy] Harry Potter and the Deathly Hallows Part 2 2011 2160p UHD BluRay x265 - DEPTH

Harry.Potter.and.the.Deathly.Hallows.Part.2.2011.2 160p.BluRay.x265.10bit.HDR.DTS-X.7.1-DEPTH

Title: Harry Potter and the Deathly Hallows: Part 2 (2011)
IMDB Rating: 8.1/10 from 619120 users Updated : 2017-12-24
Rotten Rating: 8.3/10
RottenTomatoes: [fresh!] 96% [audience liked it!] 89%
Genres: Adventure , Drama , Fantasy , Mystery
Actors: Daniel Radcliffe , Emma Watson , Rupert Grint , Ralph Fiennes , Michael Gambon , Alan Rickman , Evanna Lynch , Domhnall Gleeson , Clémence Poésy ,
Warwick Davis , John Hurt , Helena Bonham Carter , Graham Duff , Anthony Allgood , Rusty Goffe
Director: David Yates
IMDB Runtime: 130
Year: 2011
Plot: Harry| Ron| and Hermione continue their quest of finding and destroying the Dark Lord's three remaining Horcruxes| the magical items responsible for his immortality.
But as the mystical Deathly Hallows are uncovered| and Voldemort finds out about their mission| the biggest battle begins and life as they know it will never be the
same again.
Rotten Plot: Thrilling, powerfully acted, and visually dazzling, Deathly Hallows Part II brings the Harry Potter franchise to a satisfying -- and suitably magical -- conclusion.

Media info:

Code:

Video
ID                                      : 1
Format                                  : HEVC
Format/Info                              : High Efficiency Video Coding
Format profile                          : Main 10@L5.1@High
Codec ID                                : V_MPEGH/ISO/HEVC
Duration                                : 2 h 10 min
Bit rate                                : 21.2 Mb/s
Width                                    : 3 840 pixels
Height                                  : 1 600 pixels
Display aspect ratio                    : 2.40:1
Frame rate mode                          : Constant
Frame rate                              : 23.976 (24000/1001) FPS
Color space                              : YUV
Chroma subsampling                      : 4:2:0 (Type 2)
Bit depth                                : 10 bits
Bits/(Pixel*Frame)                      : 0.144
Stream size                              : 19.4 GiB (85%)
Writing library                          : x265 2.6+22-ff02513b92c0:[Windows][GCC 6.3.0][64 bit] 10bit
Encoding settings                        : cpuid=1050111 / frame-threads=5 / numa-pools=38,0 / wpp / no-pmode / no-pme / no-psnr / no-ssim / log-level=2 / input-csp=1 / input-res=3840x1600 / interlace=0 / total-frames=187643 / level-idc=51 / high-tier=1 / uhd-bd=0 / ref=4 / no-allow-non-conformance / repeat-headers / annexb / aud / hrd / info / hash=0 / no-temporal-layers / no-open-gop / min-keyint=1 / keyint=24 / gop-lookahead=0 / bframes=4 / b-adapt=2 / b-pyramid / bframe-bias=0 / rc-lookahead=25 / lookahead-slices=4 / scenecut=40 / radl=0 / no-intra-refresh / ctu=64 / min-cu-size=8 / rect / no-amp / max-tu-size=32 / tu-inter-depth=1 / tu-intra-depth=1 / limit-tu=0 / rdoq-level=2 / dynamic-rd=0.00 / no-ssim-rd / signhide / no-tskip / nr-intra=0 / nr-inter=0 / no-constrained-intra / no-strong-intra-smoothing / max-merge=3 / limit-refs=3 / limit-modes / me=3 / subme=3 / merange=57 / temporal-mvp / weightp / no-weightb / no-analyze-src-pics / deblock=-3:-3 / no-sao / no-sao-non-deblock / rd=4 / no-early-skip / rskip / no-fast-intra / no-tskip-fast / no-cu-lossless / no-b-intra / no-splitrd-skip / rdpenalty=0 / psy-rd=2.00 / psy-rdoq=1.00 / no-rd-refine / no-lossless / cbqpoffs=0 / crqpoffs=0 / rc=crf / crf=17.0 / qcomp=0.60 / qpstep=4 / stats-write=0 / stats-read=0 / vbv-maxrate=160000 / vbv-bufsize=160000 / vbv-init=0.9 / crf-max=0.0 / crf-min=0.0 / ipratio=1.40 / pbratio=1.30 / aq-mode=1 / aq-strength=1.00 / cutree / zone-count=0 / no-strict-cbr / qg-size=32 / no-rc-grain / qpmax=69 / qpmin=0 / no-const-vbv / sar=1 / overscan=0 / videoformat=5 / range=0 / colorprim=9 / transfer=16 / colormatrix=9 / chromaloc=1 / chromaloc-top=2 / chromaloc-bottom=2 / display-window=0 / master-display=G(13250,34500)B(7500,3000)R(34000,16000)WP(15635,16450)L(40000000,50) / max-cll=500,200 / min-luma=0 / max-luma=1023 / log2-max-poc-lsb=8 / vui-timing-info / vui-hrd-info / slices=1 / no-opt-qp-pps / no-opt-ref-list-length-pps / no-multi-pass-opt-rps / scenecut-bias=0.05 / no-opt-cu-delta-qp / no-aq-motion / hdr / hdr-opt / no-dhdr10-opt / analysis-save=(null) / analysis-load=(null) / analysis-reuse-level=5 / scale-factor=0 / refine-intra=0 / refine-inter=0 / refine-mv=0 / no-limit-sao / ctu-info=0 / no-lowpass-dct / refine-mv-type=0 / copy-pic=1
Default                                  : Yes
Forced                                  : No
Color range                              : Limited
Color primaries                          : BT.2020
Transfer characteristics                : PQ
Matrix coefficients                      : BT.2020 non-constant
Mastering display color primaries        : Display P3
Mastering display luminance              : min: 0.0050 cd/m2, max: 4000 cd/m2
Maximum Content Light Level              : 500 cd/m2
Maximum Frame-Average Light Level        : 200 cd/m2

Audio
ID                                      : 2
Format                                  : DTS
Format/Info                              : Digital Theater Systems
Format profile                          : X / MA / Core
Codec ID                                : A_DTS
Duration                                : 2 h 10 min
Bit rate mode                            : Variable / Variable / Constant
Bit rate                                : 3 840 kb/s / 3 840 kb/s / 1 509 kb/s
Channel(s)                              : Object Based / 8 channels / 6 channels
Channel positions                        : Object Based / Front: L C R, Side: L R, Back: L R, LFE / Front: L C R, Side: L R, LFE
Sampling rate                            :  / 48.0 kHz / 48.0 kHz
Frame rate                              : 93.750 FPS (512 SPF)
Bit depth                                :  / 24 bits / 24 bits
Compression mode                        :  / Lossless / Lossy
Stream size                              : 3.45 GiB (15%)
Language                                : English
Default                                  : Yes
Forced                                  : No

Text #1
ID                                      : 3
Format                                  : PGS
Muxing mode                              : zlib
Codec ID                                : S_HDMV/PGS
Codec ID/Info                            : Picture based subtitle format used on BDs/HD-DVDs
Duration                                : 2 h 9 min
Bit rate                                : 19.8 kb/s
Count of elements                        : 2058
Stream size                              : 18.3 MiB (0%)
Title                                    : SDH
Language                                : English
Default                                  : No
Forced                                  : No

Text #2
ID                                      : 4
Format                                  : PGS
Muxing mode                              : zlib
Codec ID                                : S_HDMV/PGS
Codec ID/Info                            : Picture based subtitle format used on BDs/HD-DVDs
Duration                                : 2 h 8 min
Bit rate                                : 15.4 kb/s
Count of elements                        : 1934
Stream size                              : 14.2 MiB (0%)
Language                                : French
Default                                  : No
Forced                                  : No

Text #3
ID                                      : 5
Format                                  : PGS
Muxing mode                              : zlib
Codec ID                                : S_HDMV/PGS
Codec ID/Info                            : Picture based subtitle format used on BDs/HD-DVDs
Duration                                : 2 h 9 min
Bit rate                                : 19.7 kb/s
Count of elements                        : 2082
Stream size                              : 18.2 MiB (0%)
Language                                : Italian
Default                                  : No
Forced                                  : No

Text #4
ID                                      : 6
Format                                  : PGS
Muxing mode                              : zlib
Codec ID                                : S_HDMV/PGS
Codec ID/Info                            : Picture based subtitle format used on BDs/HD-DVDs
Duration                                : 2 h 8 min
Bit rate                                : 15.5 kb/s
Count of elements                        : 2002
Stream size                              : 14.3 MiB (0%)
Language                                : Chinese
Default                                  : No
Forced                                  : No

Text #5
ID                                      : 7
Format                                  : PGS
Muxing mode                              : zlib
Codec ID                                : S_HDMV/PGS
Codec ID/Info                            : Picture based subtitle format used on BDs/HD-DVDs
Duration                                : 2 h 8 min
Bit rate                                : 15.1 kb/s
Count of elements                        : 1882
Stream size                              : 13.9 MiB (0%)
Language                                : Chinese
Default                                  : No
Forced                                  : No

Text #6
ID                                      : 8
Format                                  : PGS
Muxing mode                              : zlib
Codec ID                                : S_HDMV/PGS
Codec ID/Info                            : Picture based subtitle format used on BDs/HD-DVDs
Duration                                : 2 h 8 min
Bit rate                                : 12.3 kb/s
Count of elements                        : 1848
Stream size                              : 11.3 MiB (0%)
Language                                : Korean
Default                                  : No
Forced                                  : No

Text #7
ID                                      : 9
Format                                  : PGS
Muxing mode                              : zlib
Codec ID                                : S_HDMV/PGS
Codec ID/Info                            : Picture based subtitle format used on BDs/HD-DVDs
Duration                                : 2 h 8 min
Bit rate                                : 17.0 kb/s
Count of elements                        : 1846
Stream size                              : 15.7 MiB (0%)
Language                                : Spanish
Default                                  : No
Forced                                  : No

Text #8
ID                                      : 10
Format                                  : PGS
Muxing mode                              : zlib
Codec ID                                : S_HDMV/PGS
Codec ID/Info                            : Picture based subtitle format used on BDs/HD-DVDs
Duration                                : 2 h 8 min
Bit rate                                : 17.6 kb/s
Count of elements                        : 1856
Stream size                              : 16.2 MiB (0%)
Language                                : Portuguese
Default                                  : No
Forced                                  : No

Text #9
ID                                      : 11
Format                                  : PGS
Muxing mode                              : zlib
Codec ID                                : S_HDMV/PGS
Codec ID/Info                            : Picture based subtitle format used on BDs/HD-DVDs
Duration                                : 2 h 8 min
Bit rate                                : 9 680 b/s
Count of elements                        : 2034
Stream size                              : 8.92 MiB (0%)
Language                                : Arabic
Default                                  : No
Forced                                  : No

Text #10
ID                                      : 12
Format                                  : PGS
Muxing mode                              : zlib
Codec ID                                : S_HDMV/PGS
Codec ID/Info                            : Picture based subtitle format used on BDs/HD-DVDs
Duration                                : 2 h 8 min
Bit rate                                : 16.2 kb/s
Count of elements                        : 1478
Stream size                              : 14.9 MiB (0%)
Language                                : Danish
Default                                  : No
Forced                                  : No

Text #11
ID                                      : 13
Format                                  : PGS
Muxing mode                              : zlib
Codec ID                                : S_HDMV/PGS
Codec ID/Info                            : Picture based subtitle format used on BDs/HD-DVDs
Duration                                : 2 h 8 min
Bit rate                                : 15.4 kb/s
Count of elements                        : 1676
Stream size                              : 14.1 MiB (0%)
Language                                : Finnish
Default                                  : No
Forced                                  : No

Text #12
ID                                      : 14
Format                                  : PGS
Muxing mode                              : zlib
Codec ID                                : S_HDMV/PGS
Codec ID/Info                            : Picture based subtitle format used on BDs/HD-DVDs
Duration                                : 2 h 8 min
Bit rate                                : 15.7 kb/s
Count of elements                        : 1680
Stream size                              : 14.5 MiB (0%)
Language                                : Norwegian
Default                                  : No
Forced                                  : No

Text #13
ID                                      : 15
Format                                  : PGS
Muxing mode                              : zlib
Codec ID                                : S_HDMV/PGS
Codec ID/Info                            : Picture based subtitle format used on BDs/HD-DVDs
Duration                                : 2 h 8 min
Bit rate                                : 16.8 kb/s
Count of elements                        : 1592
Stream size                              : 15.5 MiB (0%)
Language                                : Swedish
Default                                  : No
Forced                                  : No

Text #14
ID                                      : 16
Format                                  : PGS
Muxing mode                              : zlib
Codec ID                                : S_HDMV/PGS
Codec ID/Info                            : Picture based subtitle format used on BDs/HD-DVDs
Duration                                : 1 h 55 min
Bit rate                                : 15.2 kb/s
Count of elements                        : 1967
Stream size                              : 12.6 MiB (0%)
Language                                : Japanese
Default                                  : No
Forced                                  : No

Menu
00:00:00.000                            : en:00:00:00.000
00:02:58.178                            : en:00:02:58.178
00:06:21.131                            : en:00:06:21.131
00:10:21.830                            : en:00:10:21.830
00:14:27.950                            : en:00:14:27.950
00:20:05.579                            : en:00:20:05.579
00:22:47.741                            : en:00:22:47.741
00:25:38.579                            : en:00:25:38.579
00:30:46.762                            : en:00:30:46.762
00:34:33.613                            : en:00:34:33.613
00:40:32.221                            : en:00:40:32.221
00:45:52.208                            : en:00:45:52.208
00:50:15.429                            : en:00:50:15.429
00:54:40.986                            : en:00:54:40.986
00:59:01.204                            : en:00:59:01.204
01:03:42.027                            : en:01:03:42.027
01:07:06.022                            : en:01:07:06.022
01:11:24.447                            : en:01:11:24.447
01:14:38.891                            : en:01:14:38.891
01:23:40.807                            : en:01:23:40.807
01:29:17.686                            : en:01:29:17.686
01:31:24.979                            : en:01:31:24.979
01:36:37.625                            : en:01:36:37.625
01:41:09.063                            : en:01:41:09.063
01:46:42.271                            : en:01:46:42.271
01:50:18.320                            : en:01:50:18.320
01:54:16.641                            : en:01:54:16.641
01:58:12.836                            : en:01:58:12.836

NFO / Screenshots:

Code:

http://imdb.com/title/tt1201607/
https://www.youtube.com/watch?v=mObK5XD8udk

http://imagecurl.com/viewer.php?file=97714519525751253531.png
http://imagecurl.com/images/97714519525751253531_thumb.png
http://imagecurl.com/viewer.php?file=67984949524923381894.png
http://imagecurl.com/images/67984949524923381894_thumb.png
http://imagecurl.com/viewer.php?file=86819501343396644964.png
http://imagecurl.com/images/86819501343396644964_thumb.png
http://imagecurl.com/viewer.php?file=61912323336171703958.png
http://imagecurl.com/images/61912323336171703958_thumb.png
http://imagecurl.com/viewer.php?file=86343956525091057673.png
http://imagecurl.com/images/86343956525091057673_thumb.png
http://imagecurl.com/viewer.php?file=54182315901196548788.png
http://imagecurl.com/images/54182315901196548788_thumb.png

Language(Text): is in the mediainfo
Language(Audio): English
Format: mkv
Size: 22.91 GB
No Pass

Download via Share-Online

Code:

http://www.share-online.biz/dl/8KB6H62PHA
http://www.share-online.biz/dl/KQC6H62PATB
http://www.share-online.biz/dl/WKB6H62PX9K
http://www.share-online.biz/dl/5BE6H62P1H7
http://www.share-online.biz/dl/EKD6H62P0NR
http://www.share-online.biz/dl/AID6H62PVS
http://www.share-online.biz/dl/DQE6H62PZGA
http://www.share-online.biz/dl/O2G6H62P2L
http://www.share-online.biz/dl/HGF6H62PWW
http://www.share-online.biz/dl/WPG6H62PUD
http://www.share-online.biz/dl/35H6H62PYS3H
http://www.share-online.biz/dl/B1I6H62P9IKV
http://www.share-online.biz/dl/AYJ6H62P0P
http://www.share-online.biz/dl/IGI6H62PH7
http://www.share-online.biz/dl/TNK6H62P66
http://www.share-online.biz/dl/XEL6H62P02
http://www.share-online.biz/dl/B4K6H62P0D
http://www.share-online.biz/dl/KHM6H62PH11
http://www.share-online.biz/dl/F9M6H62P2K1
http://www.share-online.biz/dl/OSN6H62PZDBA
http://www.share-online.biz/dl/45O6H62PA0
http://www.share-online.biz/dl/VXO6H62P12O
http://www.share-online.biz/dl/4TP6H62PKOU5
http://www.share-online.biz/dl/CLQ6H62PW5
http://www.share-online.biz/dl/1MP6H62PB2
http://www.share-online.biz/dl/3NR6H62PEY
http://www.share-online.biz/dl/4UR6H62PROO
http://www.share-online.biz/dl/UBS6H62P1JP
http://www.share-online.biz/dl/LIT6H62PHI
http://www.share-online.biz/dl/ACT6H62PQ2
http://www.share-online.biz/dl/PCV6H62P7H9A
http://www.share-online.biz/dl/NVU6H62PODO
http://www.share-online.biz/dl/QIV6H62P3AAS
http://www.share-online.biz/dl/4JW6H62P57
http://www.share-online.biz/dl/SEX6H62PKN
http://www.share-online.biz/dl/YWW6H62PXS
http://www.share-online.biz/dl/NXY6H62PS6A
http://www.share-online.biz/dl/TNZ6H62P9EU
http://www.share-online.biz/dl/CLZ6H62PEUK
http://www.share-online.biz/dl/JT07H62PZD
http://www.share-online.biz/dl/NM07H62PUMW
http://www.share-online.biz/dl/0027H62PFYC
http://www.share-online.biz/dl/EA17H62P56
http://www.share-online.biz/dl/GJ37H62PGYH
http://www.share-online.biz/dl/1Z47H62PHOQT
http://www.share-online.biz/dl/7N47H62PJU5
http://www.share-online.biz/dl/LI57H62PC6N
http://www.share-online.biz/dl/MY67H62PUSX
http://www.share-online.biz/dl/8E67H62PWI6B
http://www.share-online.biz/dl/1U77H62PMW
http://www.share-online.biz/dl/JV77H62PHI3S
http://www.share-online.biz/dl/BR97H62P9L
http://www.share-online.biz/dl/CT87H62PG9J
http://www.share-online.biz/dl/P3A7H62PMT6B
http://www.share-online.biz/dl/FYA7H62P8L
http://www.share-online.biz/dl/DNB7H62P2O5
http://www.share-online.biz/dl/V1B7H62P4E3V
http://www.share-online.biz/dl/MFC7H62PDEVS
http://www.share-online.biz/dl/SJD7H62PBG3
http://www.share-online.biz/dl/WED7H62PA5EY
http://www.share-online.biz/dl/7QE7H62PUOQ
http://www.share-online.biz/dl/WYE7H62PCT8


[Fantasy] Harry Potter and the Deathly Hallows Part 2 2011 2160p UHD BluRay x265 - DEPTH
Download links:


Related News:


Add comments

Your Name:
Your E-Mail:

Enter the words shown in captcha:


Attention!!! Comments moderated and will not appear immediately. Do not post a comment twice.