[Action] Dunkirk 2017 2160p BluRay x265 10bit SDR DTS-HD MA 5 1 - SWTYBLZ

Dunkirk.2017.2160p.BluRay.x265.10bit.SDR.DTS-HD.MA.5.1-SWTYBLZ

Title: Dunkirk (2017)
IMDB Rating: 8.2/10 from 292395 users Updated : 2017-12-30
Rotten Rating: 8.6/10
RottenTomatoes: [fresh!] 92% [audience liked it!] 81%
Genres: Action , Drama , History , Thriller , War
Actors: Fionn Whitehead , Barry Keoghan , Mark Rylance , Damien Bonnard , Aneurin Barnard , Lee Armstrong , James Bloor , Tom Glynn-Carney , Tom Hardy ,
Jack Lowden , Luke Thompson , Michel Biel , Constantin Balsan , Billy Howle , Mikey Collins
Director: Christopher Nolan
IMDB Runtime: 106
Year: 2017
Plot: Evacuation of Allied soldiers from Belgium| the British Empire| and France| who were cut off and surrounded by the German army from the beaches and harbor of
Dunkirk| France| between May 26- June 04| 1940| during Battle of France in World War II.
Rotten Plot: Dunkirk serves up emotionally satisfying spectacle, delivered by a writer-director in full command of his craft and brought to life by a gifted ensemble cast that
honors the fact-based story.

Media info:

Code:

Video
ID                                      : 1
Format                                  : HEVC
Format/Info                              : High Efficiency Video Coding
Format profile                          : Main 10@L5.1@High
Codec ID                                : V_MPEGH/ISO/HEVC
Duration                                : 1 h 46 min
Bit rate                                : 46.5 Mb/s
Width                                    : 3 840 pixels
Height                                  : 2 160 pixels
Display aspect ratio                    : 16:9
Frame rate mode                          : Constant
Frame rate                              : 23.976 (24000/1001) FPS
Color space                              : YUV
Chroma subsampling                      : 4:2:0
Bit depth                                : 10 bits
Bits/(Pixel*Frame)                      : 0.234
Stream size                              : 34.7 GiB (94%)
Title                                    : Dunkirk.2017.2160p.BluRay.x265.10bit.SDR.DTS-HD.MA.5.1-SWTYBLZ
Writing library                          : x265 2.5+4-b4a5bcfe29c7:[Windows][GCC 4.9.3][64 bit] 10bit
Encoding settings                        : cpuid=1173503 / frame-threads=16 / numa-pools=24,24,24,24 / wpp / no-pmode / no-pme / no-psnr / no-ssim / log-level=2 / input-csp=1 / input-res=3840x2160 / interlace=0 / total-frames=0 / level-idc=51 / high-tier=1 / uhd-bd=0 / ref=3 / no-allow-non-conformance / repeat-headers / annexb / aud / hrd / info / hash=0 / no-temporal-layers / no-open-gop / min-keyint=1 / keyint=24 / bframes=4 / b-adapt=2 / b-pyramid / bframe-bias=0 / rc-lookahead=25 / lookahead-slices=4 / scenecut=40 / no-intra-refresh / ctu=64 / min-cu-size=8 / no-rect / no-amp / max-tu-size=32 / tu-inter-depth=1 / tu-intra-depth=1 / limit-tu=0 / rdoq-level=0 / dynamic-rd=0.00 / no-ssim-rd / signhide / no-tskip / nr-intra=0 / nr-inter=0 / no-constrained-intra / strong-intra-smoothing / max-merge=2 / limit-refs=3 / no-limit-modes / me=1 / subme=2 / merange=57 / temporal-mvp / weightp / no-weightb / no-analyze-src-pics / deblock=0:0 / no-sao / no-sao-non-deblock / rd=3 / no-early-skip / rskip / no-fast-intra / no-tskip-fast / no-cu-lossless / no-b-intra / rdpenalty=0 / psy-rd=2.00 / psy-rdoq=0.00 / no-rd-refine / analysis-reuse-mode=0 / no-lossless / cbqpoffs=0 / crqpoffs=0 / rc=crf / crf=16.0 / qcomp=0.60 / qpstep=4 / stats-write=0 / stats-read=0 / vbv-maxrate=160000 / vbv-bufsize=160000 / vbv-init=0.9 / crf-max=0.0 / crf-min=0.0 / ipratio=1.40 / pbratio=1.30 / aq-mode=1 / aq-strength=1.00 / cutree / zone-count=0 / no-strict-cbr / qg-size=32 / no-rc-grain / qpmax=69 / qpmin=0 / no-const-vbv / sar=1 / overscan=0 / videoformat=5 / range=0 / colorprim=2 / transfer=2 / colormatrix=2 / chromaloc=0 / display-window=0 / max-cll=0,0 / min-luma=0 / max-luma=1023 / log2-max-poc-lsb=8 / vui-timing-info / vui-hrd-info / slices=1 / opt-qp-pps / opt-ref-list-length-pps / no-multi-pass-opt-rps / scenecut-bias=0.05 / no-opt-cu-delta-qp / no-aq-motion / no-hdr / no-hdr-opt / no-dhdr10-opt / analysis-reuse-level=5 / scale-factor=0 / refine-intra=0 / refine-inter=0 / refine-mv=0 / no-limit-sao / ctu-info=0
Default                                  : Yes
Forced                                  : No

Audio #1
ID                                      : 2
Format                                  : DTS
Format/Info                              : Digital Theater Systems
Format profile                          : MA / Core
Codec ID                                : A_DTS
Duration                                : 1 h 46 min
Bit rate mode                            : Variable / Constant
Bit rate                                : 2 411 kb/s / 1 509 kb/s
Channel(s)                              : 6 channels
Channel positions                        : Front: L C R, Side: L R, LFE
Sampling rate                            : 48.0 kHz
Frame rate                              : 93.750 FPS (512 SPF)
Bit depth                                : 16 bits
Compression mode                        : Lossless / Lossy
Stream size                              : 1.80 GiB (5%)
Title                                    : Dunkirk.2017.2160p.BluRay.x265.10bit.SDR.DTS-HD.MA.5.1-SWTYBLZ
Language                                : English
Default                                  : Yes
Forced                                  : No

Audio #2
ID                                      : 3
Format                                  : AC-3
Format/Info                              : Audio Coding 3
Codec ID                                : A_AC3
Duration                                : 1 h 46 min
Bit rate mode                            : Constant
Bit rate                                : 640 kb/s
Channel(s)                              : 6 channels
Channel positions                        : Front: L C R, Side: L R, LFE
Sampling rate                            : 48.0 kHz
Frame rate                              : 31.250 FPS (1536 SPF)
Bit depth                                : 16 bits
Compression mode                        : Lossy
Stream size                              : 488 MiB (1%)
Title                                    : Dunkirk.2017.2160p.BluRay.x265.10bit.SDR.DTS-HD.MA.5.1-SWTYBLZ
Language                                : English
Service kind                            : Complete Main
Default                                  : No
Forced                                  : No

Text #1
ID                                      : 4
Format                                  : UTF-8
Codec ID                                : S_TEXT/UTF8
Codec ID/Info                            : UTF-8 Plain Text
Duration                                : 1 h 36 min
Bit rate                                : 24 b/s
Count of elements                        : 693
Stream size                              : 17.5 KiB (0%)
Title                                    : English-SRT
Language                                : English
Default                                  : Yes
Forced                                  : No

Text #2
ID                                      : 5
Format                                  : PGS
Muxing mode                              : zlib
Codec ID                                : S_HDMV/PGS
Codec ID/Info                            : Picture based subtitle format used on BDs/HD-DVDs
Duration                                : 1 h 45 min
Bit rate                                : 18.9 kb/s
Count of elements                        : 1718
Stream size                              : 14.3 MiB (0%)
Title                                    : English-PGS
Language                                : English
Default                                  : No
Forced                                  : No

Text #3
ID                                      : 6
Format                                  : PGS
Muxing mode                              : zlib
Codec ID                                : S_HDMV/PGS
Codec ID/Info                            : Picture based subtitle format used on BDs/HD-DVDs
Duration                                : 1 h 46 min
Bit rate                                : 10.9 kb/s
Count of elements                        : 1296
Stream size                              : 8.30 MiB (0%)
Title                                    : French-PGS
Language                                : French
Default                                  : No
Forced                                  : No

Text #4
ID                                      : 7
Format                                  : PGS
Muxing mode                              : zlib
Codec ID                                : S_HDMV/PGS
Codec ID/Info                            : Picture based subtitle format used on BDs/HD-DVDs
Duration                                : 1 h 45 min
Bit rate                                : 16.9 kb/s
Count of elements                        : 1754
Stream size                              : 12.8 MiB (0%)
Title                                    : Italian-PGS
Language                                : Italian
Default                                  : No
Forced                                  : No

Text #5
ID                                      : 8
Format                                  : PGS
Muxing mode                              : zlib
Codec ID                                : S_HDMV/PGS
Codec ID/Info                            : Picture based subtitle format used on BDs/HD-DVDs
Duration                                : 1 h 45 min
Bit rate                                : 12.0 kb/s
Count of elements                        : 1282
Stream size                              : 9.07 MiB (0%)
Title                                    : Dutch-PGS
Language                                : Dutch
Default                                  : No
Forced                                  : No

Text #6
ID                                      : 9
Format                                  : PGS
Muxing mode                              : zlib
Codec ID                                : S_HDMV/PGS
Codec ID/Info                            : Picture based subtitle format used on BDs/HD-DVDs
Duration                                : 1 h 45 min
Bit rate                                : 10.9 kb/s
Count of elements                        : 1366
Stream size                              : 8.26 MiB (0%)
Title                                    : Chinese-PGS
Language                                : Chinese
Default                                  : No
Forced                                  : No

Text #7
ID                                      : 10
Format                                  : PGS
Muxing mode                              : zlib
Codec ID                                : S_HDMV/PGS
Codec ID/Info                            : Picture based subtitle format used on BDs/HD-DVDs
Duration                                : 1 h 46 min
Bit rate                                : 16.1 kb/s
Count of elements                        : 1310
Stream size                              : 12.2 MiB (0%)
Title                                    : Chinese-PGS
Language                                : Chinese
Default                                  : No
Forced                                  : No

Text #8
ID                                      : 11
Format                                  : PGS
Muxing mode                              : zlib
Codec ID                                : S_HDMV/PGS
Codec ID/Info                            : Picture based subtitle format used on BDs/HD-DVDs
Duration                                : 1 h 46 min
Bit rate                                : 11.8 kb/s
Count of elements                        : 1424
Stream size                              : 8.92 MiB (0%)
Title                                    : Chinese-PGS
Language                                : Chinese
Default                                  : No
Forced                                  : No

Text #9
ID                                      : 12
Format                                  : PGS
Muxing mode                              : zlib
Codec ID                                : S_HDMV/PGS
Codec ID/Info                            : Picture based subtitle format used on BDs/HD-DVDs
Duration                                : 1 h 46 min
Bit rate                                : 7 996 b/s
Count of elements                        : 1402
Stream size                              : 6.07 MiB (0%)
Title                                    : Korean-PGS
Language                                : Korean
Default                                  : No
Forced                                  : No

Text #10
ID                                      : 13
Format                                  : PGS
Muxing mode                              : zlib
Codec ID                                : S_HDMV/PGS
Codec ID/Info                            : Picture based subtitle format used on BDs/HD-DVDs
Duration                                : 1 h 46 min
Bit rate                                : 7 968 b/s
Count of elements                        : 1432
Stream size                              : 6.05 MiB (0%)
Title                                    : Arabic-PGS
Language                                : Arabic
Default                                  : No
Forced                                  : No

Text #11
ID                                      : 14
Format                                  : PGS
Muxing mode                              : zlib
Codec ID                                : S_HDMV/PGS
Codec ID/Info                            : Picture based subtitle format used on BDs/HD-DVDs
Duration                                : 1 h 45 min
Bit rate                                : 14.3 kb/s
Count of elements                        : 1416
Stream size                              : 10.8 MiB (0%)
Title                                    : Croatian-PGS
Language                                : Croatian
Default                                  : No
Forced                                  : No

Text #12
ID                                      : 15
Format                                  : PGS
Muxing mode                              : zlib
Codec ID                                : S_HDMV/PGS
Codec ID/Info                            : Picture based subtitle format used on BDs/HD-DVDs
Duration                                : 1 h 46 min
Bit rate                                : 12.4 kb/s
Count of elements                        : 1424
Stream size                              : 9.45 MiB (0%)
Title                                    : Czech-PGS
Language                                : Czech
Default                                  : No
Forced                                  : No

Text #13
ID                                      : 16
Format                                  : PGS
Muxing mode                              : zlib
Codec ID                                : S_HDMV/PGS
Codec ID/Info                            : Picture based subtitle format used on BDs/HD-DVDs
Duration                                : 1 h 45 min
Bit rate                                : 12.8 kb/s
Count of elements                        : 1078
Stream size                              : 9.70 MiB (0%)
Title                                    : Danish-PGS
Language                                : Danish
Default                                  : No
Forced                                  : No

Text #14
ID                                      : 17
Format                                  : PGS
Muxing mode                              : zlib
Codec ID                                : S_HDMV/PGS
Codec ID/Info                            : Picture based subtitle format used on BDs/HD-DVDs
Duration                                : 1 h 45 min
Bit rate                                : 14.9 kb/s
Count of elements                        : 1420
Stream size                              : 11.3 MiB (0%)
Title                                    : Finnish-PGS
Language                                : Finnish
Default                                  : No
Forced                                  : No

Text #15
ID                                      : 18
Format                                  : PGS
Muxing mode                              : zlib
Codec ID                                : S_HDMV/PGS
Codec ID/Info                            : Picture based subtitle format used on BDs/HD-DVDs
Duration                                : 1 h 46 min
Bit rate                                : 16.5 kb/s
Count of elements                        : 1420
Stream size                              : 12.5 MiB (0%)
Title                                    : Greek-PGS
Language                                : Greek
Default                                  : No
Forced                                  : No

Text #16
ID                                      : 19
Format                                  : PGS
Muxing mode                              : zlib
Codec ID                                : S_HDMV/PGS
Codec ID/Info                            : Picture based subtitle format used on BDs/HD-DVDs
Duration                                : 1 h 46 min
Bit rate                                : 9 729 b/s
Count of elements                        : 1424
Stream size                              : 7.38 MiB (0%)
Title                                    : Hebrew-PGS
Language                                : Hebrew
Default                                  : No
Forced                                  : No

Text #17
ID                                      : 20
Format                                  : PGS
Muxing mode                              : zlib
Codec ID                                : S_HDMV/PGS
Codec ID/Info                            : Picture based subtitle format used on BDs/HD-DVDs
Duration                                : 1 h 45 min
Bit rate                                : 14.0 kb/s
Count of elements                        : 1394
Stream size                              : 10.6 MiB (0%)
Title                                    : Hungarian-PGS
Language                                : Hungarian
Default                                  : No
Forced                                  : No

Text #18
ID                                      : 21
Format                                  : PGS
Muxing mode                              : zlib
Codec ID                                : S_HDMV/PGS
Codec ID/Info                            : Picture based subtitle format used on BDs/HD-DVDs
Duration                                : 1 h 45 min
Bit rate                                : 12.1 kb/s
Count of elements                        : 1088
Stream size                              : 9.14 MiB (0%)
Title                                    : Norwegian-PGS
Language                                : Norwegian
Default                                  : No
Forced                                  : No

Text #19
ID                                      : 22
Format                                  : PGS
Muxing mode                              : zlib
Codec ID                                : S_HDMV/PGS
Codec ID/Info                            : Picture based subtitle format used on BDs/HD-DVDs
Duration                                : 1 h 46 min
Bit rate                                : 12.2 kb/s
Count of elements                        : 1390
Stream size                              : 9.24 MiB (0%)
Title                                    : Polish-PGS
Language                                : Polish
Default                                  : No
Forced                                  : No

Text #20
ID                                      : 23
Format                                  : PGS
Muxing mode                              : zlib
Codec ID                                : S_HDMV/PGS
Codec ID/Info                            : Picture based subtitle format used on BDs/HD-DVDs
Duration                                : 1 h 45 min
Bit rate                                : 15.0 kb/s
Count of elements                        : 1424
Stream size                              : 11.3 MiB (0%)
Title                                    : Portuguese-PGS
Language                                : Portuguese
Default                                  : No
Forced                                  : No

Text #21
ID                                      : 24
Format                                  : PGS
Muxing mode                              : zlib
Codec ID                                : S_HDMV/PGS
Codec ID/Info                            : Picture based subtitle format used on BDs/HD-DVDs
Duration                                : 1 h 45 min
Bit rate                                : 13.6 kb/s
Count of elements                        : 1386
Stream size                              : 10.3 MiB (0%)
Title                                    : Romanian-PGS
Language                                : Romanian
Default                                  : No
Forced                                  : No

Text #22
ID                                      : 25
Format                                  : PGS
Muxing mode                              : zlib
Codec ID                                : S_HDMV/PGS
Codec ID/Info                            : Picture based subtitle format used on BDs/HD-DVDs
Duration                                : 1 h 46 min
Bit rate                                : 14.1 kb/s
Count of elements                        : 1292
Stream size                              : 10.7 MiB (0%)
Title                                    : Russian-PGS
Language                                : Russian
Default                                  : No
Forced                                  : No

Text #23
ID                                      : 26
Format                                  : PGS
Muxing mode                              : zlib
Codec ID                                : S_HDMV/PGS
Codec ID/Info                            : Picture based subtitle format used on BDs/HD-DVDs
Duration                                : 1 h 45 min
Bit rate                                : 14.0 kb/s
Count of elements                        : 1396
Stream size                              : 10.6 MiB (0%)
Title                                    : Swedish-PGS
Language                                : Swedish
Default                                  : No
Forced                                  : No

Text #24
ID                                      : 27
Format                                  : PGS
Muxing mode                              : zlib
Codec ID                                : S_HDMV/PGS
Codec ID/Info                            : Picture based subtitle format used on BDs/HD-DVDs
Duration                                : 1 h 46 min
Bit rate                                : 11.7 kb/s
Count of elements                        : 1426
Stream size                              : 8.86 MiB (0%)
Title                                    : Thai-PGS
Language                                : Thai
Default                                  : No
Forced                                  : No

Text #25
ID                                      : 28
Format                                  : PGS
Muxing mode                              : zlib
Codec ID                                : S_HDMV/PGS
Codec ID/Info                            : Picture based subtitle format used on BDs/HD-DVDs
Duration                                : 1 h 45 min
Bit rate                                : 14.3 kb/s
Count of elements                        : 1406
Stream size                              : 10.8 MiB (0%)
Title                                    : Turkish-PGS
Language                                : Turkish
Default                                  : No
Forced                                  : No

Menu
00:00:00.000                            : en:Chapter 1
00:08:51.364                            : en:Chapter 2
00:20:13.754                            : en:Chapter 3
00:29:07.620                            : en:Chapter 4
00:42:35.261                            : en:Chapter 5
00:52:48.206                            : en:Chapter 6
01:04:32.827                            : en:Chapter 7
01:12:50.824                            : en:Chapter 8
01:25:55.024                            : en:Chapter 9
01:33:23.347                            : en:Chapter 10
01:39:13.906                            : en:Chapter 11

NFO / Screenshots:

Code:

http://imdb.com/title/tt5013056/
https://www.youtube.com/watch?v=T7O7BtBnsG4

SWEATY BALLZ presents

Dunkirk.2017.2160p.BluRay.x265.10bit.SDR.DTS-HD.MA.5.1-SWTYBLZ

Converted from 10 bit HDR to 10 bit SDR using tripple mixed Hable-Reinhard-JJ per scene+frame analysis algorithm

Screenshots are 8bit SDR because browsers dont support HDR or 10bit files

http://imagecurl.com/viewer.php?file=84751886163910880662.png
http://imagecurl.com/images/84751886163910880662_thumb.png
http://imagecurl.com/viewer.php?file=35993430757420301912.png
http://imagecurl.com/images/35993430757420301912_thumb.png
http://imagecurl.com/viewer.php?file=53296014232925665751.png
http://imagecurl.com/images/53296014232925665751_thumb.png
http://imagecurl.com/viewer.php?file=23847293025711294347.png
http://imagecurl.com/images/23847293025711294347_thumb.png
http://imagecurl.com/viewer.php?file=17138181778659358643.png
http://imagecurl.com/images/17138181778659358643_thumb.png
http://imagecurl.com/viewer.php?file=52044694859683191090.png
http://imagecurl.com/images/52044694859683191090_thumb.png
http://imagecurl.com/viewer.php?file=92258042197576862298.png
http://imagecurl.com/images/92258042197576862298_thumb.png

Language(Text): is in the mediainfo
Language(Audio): English
Format: mkv
Size: 37.44 GB
No Pass

Download via Share-Online

Code:

http://www.share-online.biz/dl/OZDP3A2PKFN
http://www.share-online.biz/dl/SDEP3A2PI0O
http://www.share-online.biz/dl/RXEP3A2PW2Z
http://www.share-online.biz/dl/7IFP3A2PFL
http://www.share-online.biz/dl/04FP3A2PY1
http://www.share-online.biz/dl/FIGP3A2PAE1
http://www.share-online.biz/dl/RAHP3A2PDS34
http://www.share-online.biz/dl/QNHP3A2PS6D
http://www.share-online.biz/dl/SDIP3A2PD2U
http://www.share-online.biz/dl/P7IP3A2PQ0O
http://www.share-online.biz/dl/S5JP3A2PJGR
http://www.share-online.biz/dl/V8KP3A2P81
http://www.share-online.biz/dl/MCLP3A2PWOCW
http://www.share-online.biz/dl/Q0KP3A2PDZZB
http://www.share-online.biz/dl/TPMP3A2PA64
http://www.share-online.biz/dl/8ONP3A2PP0
http://www.share-online.biz/dl/E1MP3A2PWV
http://www.share-online.biz/dl/0LNP3A2PDHB
http://www.share-online.biz/dl/AIOP3A2PWMV
http://www.share-online.biz/dl/V1PP3A2PJB
http://www.share-online.biz/dl/NZPP3A2PS3D
http://www.share-online.biz/dl/LEQP3A2PA5
http://www.share-online.biz/dl/6QQP3A2P9I87
http://www.share-online.biz/dl/R5RP3A2PV5U
http://www.share-online.biz/dl/3TRP3A2PUZ
http://www.share-online.biz/dl/TGSP3A2PL3L
http://www.share-online.biz/dl/YBTP3A2PXYK
http://www.share-online.biz/dl/R0TP3A2PCT1Y
http://www.share-online.biz/dl/FRUP3A2PBR
http://www.share-online.biz/dl/JSUP3A2POK4
http://www.share-online.biz/dl/GMVP3A2P17
http://www.share-online.biz/dl/DVWP3A2P5HPM
http://www.share-online.biz/dl/MMWP3A2PJH3
http://www.share-online.biz/dl/HWXP3A2PWD
http://www.share-online.biz/dl/UIXP3A2PD73
http://www.share-online.biz/dl/N0YP3A2PV4W
http://www.share-online.biz/dl/S2ZP3A2PEW
http://www.share-online.biz/dl/3FYP3A2P3RFI
http://www.share-online.biz/dl/CGZP3A2PEE
http://www.share-online.biz/dl/O0ZP3A2PXW
http://www.share-online.biz/dl/6W0Q3A2PCWW
http://www.share-online.biz/dl/VK0Q3A2PTLS
http://www.share-online.biz/dl/IR0Q3A2PYE
http://www.share-online.biz/dl/QV0Q3A2PAAD6
http://www.share-online.biz/dl/M81Q3A2PD0A
http://www.share-online.biz/dl/5P1Q3A2PLKJ
http://www.share-online.biz/dl/ZU2Q3A2PZ4F
http://www.share-online.biz/dl/VF2Q3A2P3ZO
http://www.share-online.biz/dl/F22Q3A2PV5
http://www.share-online.biz/dl/YZ2Q3A2PVLLI
http://www.share-online.biz/dl/3C3Q3A2PMJ6
http://www.share-online.biz/dl/A23Q3A2PF11R
http://www.share-online.biz/dl/5L3Q3A2P6P
http://www.share-online.biz/dl/D04Q3A2PI6
http://www.share-online.biz/dl/TK4Q3A2PR4
http://www.share-online.biz/dl/OX4Q3A2PU0
http://www.share-online.biz/dl/495Q3A2P9N
http://www.share-online.biz/dl/5A5Q3A2PV50I
http://www.share-online.biz/dl/A05Q3A2P7RT
http://www.share-online.biz/dl/515Q3A2PNVY
http://www.share-online.biz/dl/526Q3A2P87GJ
http://www.share-online.biz/dl/SX6Q3A2PDT2W
http://www.share-online.biz/dl/PY6Q3A2PLQE
http://www.share-online.biz/dl/A17Q3A2P4VY
http://www.share-online.biz/dl/XW7Q3A2PBDS
http://www.share-online.biz/dl/TG7Q3A2PUEC
http://www.share-online.biz/dl/NM8Q3A2PTE
http://www.share-online.biz/dl/LP8Q3A2PJ793
http://www.share-online.biz/dl/GX8Q3A2PVCRT
http://www.share-online.biz/dl/G88Q3A2PF7JY
http://www.share-online.biz/dl/369Q3A2P8E
http://www.share-online.biz/dl/FL9Q3A2P1B
http://www.share-online.biz/dl/MV9Q3A2PQG
http://www.share-online.biz/dl/I29Q3A2PEM
http://www.share-online.biz/dl/RLAQ3A2PGAD
http://www.share-online.biz/dl/V0AQ3A2PZL
http://www.share-online.biz/dl/WWBQ3A2PXAI1
http://www.share-online.biz/dl/MTBQ3A2PTZ
http://www.share-online.biz/dl/ATBQ3A2PDWNL
http://www.share-online.biz/dl/1RCQ3A2P3ID
http://www.share-online.biz/dl/PMBQ3A2PW2
http://www.share-online.biz/dl/8TCQ3A2PCL
http://www.share-online.biz/dl/ZCCQ3A2P438
http://www.share-online.biz/dl/P3DQ3A2PKT
http://www.share-online.biz/dl/0NDQ3A2PZTK
http://www.share-online.biz/dl/STDQ3A2P6XC
http://www.share-online.biz/dl/RLDQ3A2PHX
http://www.share-online.biz/dl/RUEQ3A2POO
http://www.share-online.biz/dl/TDEQ3A2PBV1
http://www.share-online.biz/dl/N3EQ3A2PY1
http://www.share-online.biz/dl/3BFQ3A2PTNH
http://www.share-online.biz/dl/U1FQ3A2PPZ
http://www.share-online.biz/dl/KLFQ3A2PL7EM
http://www.share-online.biz/dl/NTFQ3A2PZAX
http://www.share-online.biz/dl/BSGQ3A2PBLH
http://www.share-online.biz/dl/8YGQ3A2PDFH
http://www.share-online.biz/dl/SXHQ3A2PB0
http://www.share-online.biz/dl/KQGQ3A2PMR
http://www.share-online.biz/dl/ONHQ3A2PVU
http://www.share-online.biz/dl/OJIQ3A2PS4
http://www.share-online.biz/dl/DLHQ3A2P1F


[Action] Dunkirk 2017 2160p BluRay x265 10bit SDR DTS-HD MA 5 1 - SWTYBLZ
Download links:


Related News:


Add comments

Your Name:
Your E-Mail:

Enter the words shown in captcha:


Attention!!! Comments moderated and will not appear immediately. Do not post a comment twice.