[Mystery] The Bourne Legacy 2012 2160p BluRay x265 10bit SDR DTS-X 7 1 - SWTYBLZ

The.Bourne.Legacy.2012.2160p.BluRay.x265.10bit.SDR .DTS-X.7.1-SWTYBLZ

Title: The Bourne Legacy (2012)
IMDB Rating: 6.7/10 from 252656 users Updated : 2017-12-25
Rotten Rating: 5.9/10
RottenTomatoes: [fresh!] 56% [audience liked it!] 58%
Genres: Action , Adventure , Mystery , Romance , Thriller
Actors: Jeremy Renner , Rachel Weisz , Edward Norton , Scott Glenn , Stacy Keach , Donna Murphy , Michael Chernus , Corey Stoll , Alice Gainer ,
Prue Lewarne , Howard Leader , James Joseph O'Neil , Tony Guida , Sonnie Brown , Neil Brooks Cunningham
Director: Tony Gilroy
IMDB Runtime: 135
Year: 2012
Plot: The events in this movie take place around the same time as the events in The Bourne Ultimatum (2007). When a British reporter was
writing an expose about Black Ops operations Treadstone and Black Briar| and the ones responsible for them are concerned. And when Jason Bourne| former Treadstone
operative got the file on Treadstone and Black Briar and gave it to Pamela Landy who then passed it to the media. When the men behind Treadstone and Black Briar
learn of this| they're concerned how this will affect other ops they have. They decide it's best to shut down all ops and make sure make everyone involved
disappears. They try to take out Aaron Cross who is part of another op called Outcome| but he manages to survive. He then seeks out Dr. Marta Shearing who worked on
him when he began. It seems part of the program is for all subjects to take medications but he has run out| which is why he seeks her. But someone tries to kill her.
He saves her and she tells him| he should have stopped ...
Rotten Plot: It isn't quite as compelling as the earlier trilogy, but The Bourne Legacy proves the franchise has stories left to tell -- and benefits from Jeremy Renner's
magnetic work in the starring role.

Media info:

Code:

Video
ID                                      : 1
Format                                  : HEVC
Format/Info                              : High Efficiency Video Coding
Format profile                          : Main 10@L5.1@High
Codec ID                                : V_MPEGH/ISO/HEVC
Duration                                : 2 h 14 min
Bit rate                                : 43.9 Mb/s
Width                                    : 3 840 pixels
Height                                  : 1 600 pixels
Display aspect ratio                    : 2.40:1
Frame rate mode                          : Constant
Frame rate                              : 23.976 (24000/1001) FPS
Color space                              : YUV
Chroma subsampling                      : 4:2:0
Bit depth                                : 10 bits
Bits/(Pixel*Frame)                      : 0.298
Stream size                              : 41.3 GiB (90%)
Title                                    : The.Bourne.Legacy.2012.2160p.BluRay.x265.10bit.SDR.DTS-X.7.1-SWTYBLZ
Writing library                          : x265 2.5+4-b4a5bcfe29c7:[Windows][GCC 4.9.3][64 bit] 10bit
Encoding settings                        : cpuid=1173503 / frame-threads=16 / numa-pools=24,24,24,24 / wpp / no-pmode / no-pme / no-psnr / no-ssim / log-level=2 / input-csp=1 / input-res=3840x1600 / interlace=0 / total-frames=0 / level-idc=51 / high-tier=1 / uhd-bd=0 / ref=3 / no-allow-non-conformance / repeat-headers / annexb / aud / hrd / info / hash=0 / no-temporal-layers / no-open-gop / min-keyint=1 / keyint=24 / bframes=4 / b-adapt=2 / b-pyramid / bframe-bias=0 / rc-lookahead=25 / lookahead-slices=4 / scenecut=40 / no-intra-refresh / ctu=64 / min-cu-size=8 / no-rect / no-amp / max-tu-size=32 / tu-inter-depth=1 / tu-intra-depth=1 / limit-tu=0 / rdoq-level=0 / dynamic-rd=0.00 / no-ssim-rd / signhide / no-tskip / nr-intra=0 / nr-inter=0 / no-constrained-intra / strong-intra-smoothing / max-merge=2 / limit-refs=3 / no-limit-modes / me=1 / subme=2 / merange=57 / temporal-mvp / weightp / no-weightb / no-analyze-src-pics / deblock=0:0 / no-sao / no-sao-non-deblock / rd=3 / no-early-skip / rskip / no-fast-intra / no-tskip-fast / no-cu-lossless / no-b-intra / rdpenalty=0 / psy-rd=2.00 / psy-rdoq=0.00 / no-rd-refine / analysis-reuse-mode=0 / no-lossless / cbqpoffs=0 / crqpoffs=0 / rc=crf / crf=16.0 / qcomp=0.60 / qpstep=4 / stats-write=0 / stats-read=0 / vbv-maxrate=160000 / vbv-bufsize=160000 / vbv-init=0.9 / crf-max=0.0 / crf-min=0.0 / ipratio=1.40 / pbratio=1.30 / aq-mode=1 / aq-strength=1.00 / cutree / zone-count=0 / no-strict-cbr / qg-size=32 / no-rc-grain / qpmax=69 / qpmin=0 / no-const-vbv / sar=1 / overscan=0 / videoformat=5 / range=0 / colorprim=2 / transfer=2 / colormatrix=2 / chromaloc=0 / display-window=0 / max-cll=0,0 / min-luma=0 / max-luma=1023 / log2-max-poc-lsb=8 / vui-timing-info / vui-hrd-info / slices=1 / opt-qp-pps / opt-ref-list-length-pps / no-multi-pass-opt-rps / scenecut-bias=0.05 / no-opt-cu-delta-qp / no-aq-motion / no-hdr / no-hdr-opt / no-dhdr10-opt / analysis-reuse-level=5 / scale-factor=0 / refine-intra=0 / refine-inter=0 / refine-mv=0 / no-limit-sao / ctu-info=0
Default                                  : Yes
Forced                                  : No

Audio #1
ID                                      : 2
Format                                  : DTS
Format/Info                              : Digital Theater Systems
Format profile                          : X / MA / Core
Codec ID                                : A_DTS
Duration                                : 2 h 14 min
Bit rate mode                            : Variable / Variable / Constant
Bit rate                                : 4 324 kb/s / 4 324 kb/s / 1 509 kb/s
Channel(s)                              : Object Based / 8 channels / 6 channels
Channel positions                        : Object Based / Front: L C R, Side: L R, Back: L R, LFE / Front: L C R, Side: L R, LFE
Sampling rate                            :  / 48.0 kHz / 48.0 kHz
Frame rate                              : 93.750 FPS (512 SPF)
Bit depth                                :  / 24 bits / 24 bits
Compression mode                        :  / Lossless / Lossy
Stream size                              : 4.08 GiB (9%)
Title                                    : The.Bourne.Legacy.2012.2160p.BluRay.x265.10bit.SDR.DTS-X.7.1-SWTYBLZ
Language                                : English
Default                                  : Yes
Forced                                  : No

Audio #2
ID                                      : 3
Format                                  : AC-3
Format/Info                              : Audio Coding 3
Codec ID                                : A_AC3
Duration                                : 2 h 14 min
Bit rate mode                            : Constant
Bit rate                                : 640 kb/s
Channel(s)                              : 6 channels
Channel positions                        : Front: L C R, Side: L R, LFE
Sampling rate                            : 48.0 kHz
Frame rate                              : 31.250 FPS (1536 SPF)
Bit depth                                : 16 bits
Compression mode                        : Lossy
Stream size                              : 618 MiB (1%)
Title                                    : The.Bourne.Legacy.2012.2160p.BluRay.x265.10bit.SDR.DTS-X.7.1-SWTYBLZ
Language                                : English
Service kind                            : Complete Main
Default                                  : No
Forced                                  : No

Text #1
ID                                      : 4
Format                                  : UTF-8
Codec ID                                : S_TEXT/UTF8
Codec ID/Info                            : UTF-8 Plain Text
Duration                                : 2 h 2 min
Bit rate                                : 54 b/s
Count of elements                        : 1460
Stream size                              : 49.2 KiB (0%)
Title                                    : English-SRT
Language                                : English
Default                                  : Yes
Forced                                  : No

Text #2
ID                                      : 5
Format                                  : PGS
Muxing mode                              : zlib
Codec ID                                : S_HDMV/PGS
Codec ID/Info                            : Picture based subtitle format used on BDs/HD-DVDs
Duration                                : 2 h 2 min
Bit rate                                : 38.7 kb/s
Count of elements                        : 3174
Stream size                              : 34.0 MiB (0%)
Title                                    : English-PGS
Language                                : English
Default                                  : No
Forced                                  : No

Text #3
ID                                      : 6
Format                                  : PGS
Muxing mode                              : zlib
Codec ID                                : S_HDMV/PGS
Codec ID/Info                            : Picture based subtitle format used on BDs/HD-DVDs
Duration                                : 2 h 14 min
Bit rate                                : 25.6 kb/s
Count of elements                        : 2492
Stream size                              : 24.6 MiB (0%)
Title                                    : French-PGS
Language                                : French
Default                                  : No
Forced                                  : No

Text #4
ID                                      : 7
Format                                  : PGS
Muxing mode                              : zlib
Codec ID                                : S_HDMV/PGS
Codec ID/Info                            : Picture based subtitle format used on BDs/HD-DVDs
Duration                                : 2 h 14 min
Bit rate                                : 25.7 kb/s
Count of elements                        : 2246
Stream size                              : 24.6 MiB (0%)
Title                                    : Dutch-PGS
Language                                : Dutch
Default                                  : No
Forced                                  : No

Text #5
ID                                      : 8
Format                                  : PGS
Muxing mode                              : zlib
Codec ID                                : S_HDMV/PGS
Codec ID/Info                            : Picture based subtitle format used on BDs/HD-DVDs
Duration                                : 2 h 14 min
Bit rate                                : 25.9 kb/s
Count of elements                        : 2012
Stream size                              : 24.8 MiB (0%)
Title                                    : Danish-PGS
Language                                : Danish
Default                                  : No
Forced                                  : No

Text #6
ID                                      : 9
Format                                  : PGS
Muxing mode                              : zlib
Codec ID                                : S_HDMV/PGS
Codec ID/Info                            : Picture based subtitle format used on BDs/HD-DVDs
Duration                                : 2 h 14 min
Bit rate                                : 23.4 kb/s
Count of elements                        : 2322
Stream size                              : 22.4 MiB (0%)
Title                                    : Finnish-PGS
Language                                : Finnish
Default                                  : No
Forced                                  : No

Text #7
ID                                      : 10
Format                                  : PGS
Muxing mode                              : zlib
Codec ID                                : S_HDMV/PGS
Codec ID/Info                            : Picture based subtitle format used on BDs/HD-DVDs
Duration                                : 2 h 14 min
Bit rate                                : 22.9 kb/s
Count of elements                        : 2392
Stream size                              : 21.9 MiB (0%)
Title                                    : Norwegian-PGS
Language                                : Norwegian
Default                                  : No
Forced                                  : No

Text #8
ID                                      : 11
Format                                  : PGS
Muxing mode                              : zlib
Codec ID                                : S_HDMV/PGS
Codec ID/Info                            : Picture based subtitle format used on BDs/HD-DVDs
Duration                                : 2 h 14 min
Bit rate                                : 26.3 kb/s
Count of elements                        : 2060
Stream size                              : 25.2 MiB (0%)
Title                                    : Swedish-PGS
Language                                : Swedish
Default                                  : No
Forced                                  : No

Text #9
ID                                      : 12
Format                                  : PGS
Muxing mode                              : zlib
Codec ID                                : S_HDMV/PGS
Codec ID/Info                            : Picture based subtitle format used on BDs/HD-DVDs
Duration                                : 2 h 14 min
Bit rate                                : 25.2 kb/s
Count of elements                        : 1884
Stream size                              : 24.2 MiB (0%)
Title                                    : Czech-PGS
Language                                : Czech
Default                                  : No
Forced                                  : No

Text #10
ID                                      : 13
Format                                  : PGS
Muxing mode                              : zlib
Codec ID                                : S_HDMV/PGS
Codec ID/Info                            : Picture based subtitle format used on BDs/HD-DVDs
Duration                                : 2 h 14 min
Bit rate                                : 25.2 kb/s
Count of elements                        : 2776
Stream size                              : 24.1 MiB (0%)
Title                                    : Polish-PGS
Language                                : Polish
Default                                  : No
Forced                                  : No

Text #11
ID                                      : 14
Format                                  : PGS
Muxing mode                              : zlib
Codec ID                                : S_HDMV/PGS
Codec ID/Info                            : Picture based subtitle format used on BDs/HD-DVDs
Duration                                : 2 h 14 min
Bit rate                                : 23.4 kb/s
Count of elements                        : 2906
Stream size                              : 22.4 MiB (0%)
Title                                    : Thai-PGS
Language                                : Thai
Default                                  : No
Forced                                  : No

Text #12
ID                                      : 15
Format                                  : PGS
Muxing mode                              : zlib
Codec ID                                : S_HDMV/PGS
Codec ID/Info                            : Picture based subtitle format used on BDs/HD-DVDs
Duration                                : 2 h 14 min
Bit rate                                : 27.2 kb/s
Count of elements                        : 2152
Stream size                              : 26.1 MiB (0%)
Title                                    : Greek-PGS
Language                                : Greek
Default                                  : No
Forced                                  : No

Text #13
ID                                      : 16
Format                                  : PGS
Muxing mode                              : zlib
Codec ID                                : S_HDMV/PGS
Codec ID/Info                            : Picture based subtitle format used on BDs/HD-DVDs
Duration                                : 2 h 14 min
Bit rate                                : 332 b/s
Count of elements                        : 28
Stream size                              : 327 KiB (0%)
Title                                    : French-FORCED-PGS
Language                                : French
Default                                  : No
Forced                                  : No

Menu
00:00:00.000                            : en:Chapter 1
00:08:44.690                            : en:Chapter 2
00:14:27.616                            : en:Chapter 3
00:19:58.488                            : en:Chapter 4
00:27:54.297                            : en:Chapter 5
00:34:19.265                            : en:Chapter 6
00:42:53.404                            : en:Chapter 7
00:47:58.375                            : en:Chapter 8
00:53:57.067                            : en:Chapter 9
01:00:30.168                            : en:Chapter 10
01:07:37.636                            : en:Chapter 11
01:14:37.973                            : en:Chapter 12
01:22:40.205                            : en:Chapter 13
01:28:38.688                            : en:Chapter 14
01:36:40.044                            : en:Chapter 15
01:41:06.685                            : en:Chapter 16
01:45:08.969                            : en:Chapter 17
01:52:16.521                            : en:Chapter 18
02:00:08.284                            : en:Chapter 19
02:05:07.416                            : en:Chapter 20

NFO / Screenshots:

Code:

http://imdb.com/title/tt1194173/
https://www.youtube.com/watch?v=43WTCO8-C4w

SWEATY BALLZ presents

The.Bourne.Legacy.2012.2160p.BluRay.x265.10bit.SDR.DTS-X.7.1-SWTYBLZ

Converted from 10 bit HDR to 10 bit SDR using tripple mixed Hable-Reinhard-JJ per scene+frame analysis algorithm

Screenshots are 8bit SDR because browsers dont support HDR or 10bit files

http://imagecurl.com/viewer.php?file=12258011443060841955.png
http://imagecurl.com/images/12258011443060841955_thumb.png
http://imagecurl.com/viewer.php?file=50983660311815482766.png
http://imagecurl.com/images/50983660311815482766_thumb.png
http://imagecurl.com/viewer.php?file=57152991975061612313.png
http://imagecurl.com/images/57152991975061612313_thumb.png
http://imagecurl.com/viewer.php?file=79981052533077577172.png
http://imagecurl.com/images/79981052533077577172_thumb.png
http://imagecurl.com/viewer.php?file=71922548940387141031.png
http://imagecurl.com/images/71922548940387141031_thumb.png
http://imagecurl.com/viewer.php?file=53150862587328564465.png
http://imagecurl.com/images/53150862587328564465_thumb.png
http://imagecurl.com/viewer.php?file=27151341697025378164.png
http://imagecurl.com/images/27151341697025378164_thumb.png

Language(Text): is in the mediainfo
Language(Audio): English
Format: mkv
Size: 46.42 GB
No Pass

Download via Share-Online

Code:

http://www.share-online.biz/dl/PMBN3A2P6DJR
http://www.share-online.biz/dl/RBBN3A2PE0K4
http://www.share-online.biz/dl/RDCN3A2P5MZ
http://www.share-online.biz/dl/LPDN3A2PYN
http://www.share-online.biz/dl/M4EN3A2P144J
http://www.share-online.biz/dl/GKDN3A2PWF
http://www.share-online.biz/dl/5SFN3A2PXV3
http://www.share-online.biz/dl/WOFN3A2PI7
http://www.share-online.biz/dl/ZGGN3A2PTRT
http://www.share-online.biz/dl/YKGN3A2PMA2
http://www.share-online.biz/dl/INHN3A2PNK
http://www.share-online.biz/dl/OHHN3A2PTKVL
http://www.share-online.biz/dl/ANIN3A2P91S
http://www.share-online.biz/dl/FWIN3A2PSS
http://www.share-online.biz/dl/E9KN3A2PRJ8
http://www.share-online.biz/dl/XWJN3A2PA7L8
http://www.share-online.biz/dl/CNLN3A2PRT
http://www.share-online.biz/dl/FYKN3A2PAA
http://www.share-online.biz/dl/FELN3A2PAK
http://www.share-online.biz/dl/NEMN3A2P3P
http://www.share-online.biz/dl/IWMN3A2PAV
http://www.share-online.biz/dl/LONN3A2PZD
http://www.share-online.biz/dl/57ON3A2PEL1
http://www.share-online.biz/dl/THON3A2PLP4J
http://www.share-online.biz/dl/RIPN3A2PEP
http://www.share-online.biz/dl/37QN3A2P1270
http://www.share-online.biz/dl/NGQN3A2POSS4
http://www.share-online.biz/dl/XNRN3A2PKQ4K
http://www.share-online.biz/dl/FPRN3A2PWG
http://www.share-online.biz/dl/MYSN3A2PZJ
http://www.share-online.biz/dl/JGTN3A2PH2
http://www.share-online.biz/dl/ZWUN3A2P7BI
http://www.share-online.biz/dl/HMUN3A2PUDB
http://www.share-online.biz/dl/CCTN3A2P4E7G
http://www.share-online.biz/dl/P7VN3A2P9W
http://www.share-online.biz/dl/V1VN3A2P18
http://www.share-online.biz/dl/GFWN3A2PGLU
http://www.share-online.biz/dl/EKXN3A2PYUIX
http://www.share-online.biz/dl/H1XN3A2P197U
http://www.share-online.biz/dl/S0YN3A2PB4
http://www.share-online.biz/dl/XIYN3A2PKL
http://www.share-online.biz/dl/10ZN3A2P694
http://www.share-online.biz/dl/WR0O3A2P3MD
http://www.share-online.biz/dl/9R0O3A2PMR2
http://www.share-online.biz/dl/S51O3A2PDIT
http://www.share-online.biz/dl/891O3A2PJ2
http://www.share-online.biz/dl/9I2O3A2P3M
http://www.share-online.biz/dl/KH2O3A2PQDP
http://www.share-online.biz/dl/TX4O3A2PAHG5
http://www.share-online.biz/dl/EH3O3A2PSE5
http://www.share-online.biz/dl/4B4O3A2P0B4
http://www.share-online.biz/dl/O55O3A2PJKV
http://www.share-online.biz/dl/LC6O3A2PMB
http://www.share-online.biz/dl/966O3A2PNWY
http://www.share-online.biz/dl/1D7O3A2PQY
http://www.share-online.biz/dl/RU8O3A2PL68
http://www.share-online.biz/dl/BJ7O3A2PT0W
http://www.share-online.biz/dl/KI9O3A2PKY
http://www.share-online.biz/dl/SH9O3A2PYWIW
http://www.share-online.biz/dl/6NAO3A2PKA
http://www.share-online.biz/dl/54AO3A2P4LZT
http://www.share-online.biz/dl/GGBO3A2PLFW
http://www.share-online.biz/dl/5HCO3A2P35HB
http://www.share-online.biz/dl/O2CO3A2P6Z
http://www.share-online.biz/dl/YSDO3A2P0L
http://www.share-online.biz/dl/KPDO3A2P9V2
http://www.share-online.biz/dl/JUEO3A2PSQC
http://www.share-online.biz/dl/SJEO3A2P8YW
http://www.share-online.biz/dl/PYFO3A2PID3
http://www.share-online.biz/dl/QYGO3A2PS04
http://www.share-online.biz/dl/80GO3A2P2HP
http://www.share-online.biz/dl/CHHO3A2PIKT3
http://www.share-online.biz/dl/MPHO3A2PQW
http://www.share-online.biz/dl/Y0IO3A2PBFM
http://www.share-online.biz/dl/ZRKO3A2P1JU
http://www.share-online.biz/dl/UJJO3A2PK8CB
http://www.share-online.biz/dl/BUKO3A2PV4X
http://www.share-online.biz/dl/52LO3A2PT5HH
http://www.share-online.biz/dl/8BMO3A2POR0K
http://www.share-online.biz/dl/NDLO3A2P0E
http://www.share-online.biz/dl/IOMO3A2P5R
http://www.share-online.biz/dl/SDNO3A2PB0H1
http://www.share-online.biz/dl/C2OO3A2PO9H
http://www.share-online.biz/dl/4XPO3A2PGQLO
http://www.share-online.biz/dl/3BOO3A2PNG
http://www.share-online.biz/dl/0YQO3A2PFM4
http://www.share-online.biz/dl/CZQO3A2PBR
http://www.share-online.biz/dl/94RO3A2P6F2D
http://www.share-online.biz/dl/3FRO3A2P2EB
http://www.share-online.biz/dl/TVSO3A2PZUB
http://www.share-online.biz/dl/E7UO3A2P6A
http://www.share-online.biz/dl/SESO3A2PGA
http://www.share-online.biz/dl/WPTO3A2PQ0
http://www.share-online.biz/dl/ZRVO3A2P3AF
http://www.share-online.biz/dl/EUUO3A2PFON
http://www.share-online.biz/dl/ONWO3A2PBTV
http://www.share-online.biz/dl/BVWO3A2PNGJ5
http://www.share-online.biz/dl/M7XO3A2PZ99
http://www.share-online.biz/dl/29XO3A2P3BI
http://www.share-online.biz/dl/COYO3A2PJU
http://www.share-online.biz/dl/IRYO3A2PEPF4
http://www.share-online.biz/dl/DP0P3A2PODDX
http://www.share-online.biz/dl/W5ZO3A2PH9
http://www.share-online.biz/dl/M50P3A2POLRT
http://www.share-online.biz/dl/ME1P3A2PUW2Y
http://www.share-online.biz/dl/QF1P3A2P33P
http://www.share-online.biz/dl/PH2P3A2PRI
http://www.share-online.biz/dl/SI3P3A2PSP0
http://www.share-online.biz/dl/PI3P3A2PUW
http://www.share-online.biz/dl/L64P3A2P7SZ
http://www.share-online.biz/dl/W14P3A2PPN2
http://www.share-online.biz/dl/4V6P3A2PXCM
http://www.share-online.biz/dl/LS5P3A2P6KB
http://www.share-online.biz/dl/BH6P3A2PCPN
http://www.share-online.biz/dl/N57P3A2P7Z
http://www.share-online.biz/dl/0Y7P3A2PVO
http://www.share-online.biz/dl/UI8P3A2PCY
http://www.share-online.biz/dl/71AP3A2PT5
http://www.share-online.biz/dl/9Z9P3A2PG8OV
http://www.share-online.biz/dl/EH9P3A2PB1S
http://www.share-online.biz/dl/5BAP3A2P32
http://www.share-online.biz/dl/VHCP3A2PG7XT
http://www.share-online.biz/dl/ABBP3A2PNYM
http://www.share-online.biz/dl/2LCP3A2PC5
http://www.share-online.biz/dl/WADP3A2PWD


[Mystery] The Bourne Legacy 2012 2160p BluRay x265 10bit SDR DTS-X 7 1 - SWTYBLZ
Download links:


Related News:


Add comments

Your Name:
Your E-Mail:

Enter the words shown in captcha:


Attention!!! Comments moderated and will not appear immediately. Do not post a comment twice.