[Action] Spider-Man 2 2004 2160p BluRay x265 10bit SDR DTS-HD MA TrueHD 7 1 Atmos - SWTYBLZ

Spider-Man.2.2004.2160p.BluRay.x265.10bit.SDR.DTS-HD.MA.TrueHD.7.1.Atmos-SWTYBLZ

Title: Spider-Man 2 (2004)
IMDB Rating: 7.3/10 from 457305 users Updated : 2017-12-25
Genres: Action , Adventure , Sci-Fi
Actors: Tobey Maguire , Kirsten Dunst , Alfred Molina , James Franco , Rosemary Harris , J.K. Simmons , Donna Murphy , Daniel Gillies , Dylan Baker ,
Bill Nunn , Vanessa Ferlito , Aasif Mandvi , Willem Dafoe , Cliff Robertson , Ted Raimi
Director: Sam Raimi
IMDB Runtime: 127
Year: 2004
Plot: Peter Parker is an unhappy man: after two years of fighting crime as Spider-Man| his life has begun to fall apart. The girl he loves is engaged to someone else| his
grades are slipping| he cannot keep any of his jobs| and on top of it| the newspaper Daily Bugle is attacking him viciously| claiming that Spider-Man is a criminal.
He reaches the breaking point and gives up the crime fighter's life| once and for all. But after a failed fusion experiment| eccentric and obsessive scientist Dr.
Otto Octavius is transformed into super villain Doctor Octopus| Doc Ock for short| having four long tentacles as extra hands. Peter guesses it might just be time for
Spider-Man to return| but would he act upon it?

Media info:

Code:

Video
ID                                      : 1
Format                                  : HEVC
Format/Info                              : High Efficiency Video Coding
Format profile                          : Main 10@L5.1@High
Codec ID                                : V_MPEGH/ISO/HEVC
Duration                                : 2 h 7 min
Bit rate                                : 23.4 Mb/s
Width                                    : 3 840 pixels
Height                                  : 1 606 pixels
Display aspect ratio                    : 2.40:1
Frame rate mode                          : Constant
Frame rate                              : 23.976 (24000/1001) FPS
Color space                              : YUV
Chroma subsampling                      : 4:2:0
Bit depth                                : 10 bits
Bits/(Pixel*Frame)                      : 0.159
Stream size                              : 20.9 GiB (70%)
Title                                    : Spider-Man.2.2004.2160p.BluRay.x265.10bit.SDR.DTS-HD.MA.TrueHD.7.1.Atmos-SWTYBLZ
Writing library                          : x265 2.5+4-b4a5bcfe29c7:[Windows][GCC 4.9.3][64 bit] 10bit
Encoding settings                        : cpuid=1173503 / frame-threads=16 / numa-pools=24,24,24,24 / wpp / no-pmode / no-pme / no-psnr / no-ssim / log-level=2 / input-csp=1 / input-res=3840x1606 / interlace=0 / total-frames=0 / level-idc=51 / high-tier=1 / uhd-bd=0 / ref=3 / no-allow-non-conformance / repeat-headers / annexb / aud / hrd / info / hash=0 / no-temporal-layers / no-open-gop / min-keyint=1 / keyint=24 / bframes=4 / b-adapt=2 / b-pyramid / bframe-bias=0 / rc-lookahead=25 / lookahead-slices=4 / scenecut=40 / no-intra-refresh / ctu=64 / min-cu-size=8 / no-rect / no-amp / max-tu-size=32 / tu-inter-depth=1 / tu-intra-depth=1 / limit-tu=0 / rdoq-level=0 / dynamic-rd=0.00 / no-ssim-rd / signhide / no-tskip / nr-intra=0 / nr-inter=0 / no-constrained-intra / strong-intra-smoothing / max-merge=2 / limit-refs=3 / no-limit-modes / me=1 / subme=2 / merange=57 / temporal-mvp / weightp / no-weightb / no-analyze-src-pics / deblock=0:0 / no-sao / no-sao-non-deblock / rd=3 / no-early-skip / rskip / no-fast-intra / no-tskip-fast / no-cu-lossless / no-b-intra / rdpenalty=0 / psy-rd=2.00 / psy-rdoq=0.00 / no-rd-refine / analysis-reuse-mode=0 / no-lossless / cbqpoffs=0 / crqpoffs=0 / rc=crf / crf=22.0 / qcomp=0.60 / qpstep=4 / stats-write=0 / stats-read=0 / vbv-maxrate=160000 / vbv-bufsize=160000 / vbv-init=0.9 / crf-max=0.0 / crf-min=0.0 / ipratio=1.40 / pbratio=1.30 / aq-mode=1 / aq-strength=1.00 / cutree / zone-count=0 / no-strict-cbr / qg-size=32 / no-rc-grain / qpmax=69 / qpmin=0 / no-const-vbv / sar=1 / overscan=0 / videoformat=5 / range=0 / colorprim=2 / transfer=2 / colormatrix=2 / chromaloc=0 / display-window=0 / max-cll=0,0 / min-luma=0 / max-luma=1023 / log2-max-poc-lsb=8 / vui-timing-info / vui-hrd-info / slices=1 / opt-qp-pps / opt-ref-list-length-pps / no-multi-pass-opt-rps / scenecut-bias=0.05 / no-opt-cu-delta-qp / no-aq-motion / no-hdr / no-hdr-opt / no-dhdr10-opt / analysis-reuse-level=5 / scale-factor=0 / refine-intra=0 / refine-inter=0 / refine-mv=0 / no-limit-sao / ctu-info=0
Default                                  : Yes
Forced                                  : No

Audio #1
ID                                      : 2
Format                                  : TrueHD
Format profile                          : TrueHD+Atmos / TrueHD
Codec ID                                : A_TRUEHD
Duration                                : 2 h 7 min
Bit rate mode                            : Variable
Bit rate                                : 4 962 kb/s
Maximum bit rate                        : 9 234 kb/s
Channel(s)                              : Object Based / 8 channels
Channel positions                        : Object Based / Front: L C R, Side: L R, Back: L R, LFE
Sampling rate                            :  / 48.0 kHz
Frame rate                              : 1 200.000 FPS (40 SPF)
Compression mode                        : Lossless
Stream size                              : 4.42 GiB (15%)
Title                                    : Spider-Man.2.2004.2160p.BluRay.x265.10bit.SDR.DTS-HD.MA.TrueHD.7.1.Atmos-SWTYBLZ
Language                                : English
Default                                  : Yes
Forced                                  : No

Audio #2
ID                                      : 3
Format                                  : DTS
Format/Info                              : Digital Theater Systems
Format profile                          : MA / Core
Codec ID                                : A_DTS
Duration                                : 2 h 7 min
Bit rate mode                            : Variable / Constant
Bit rate                                : 4 108 kb/s / 1 509 kb/s
Channel(s)                              : 8 channels / 6 channels
Channel positions                        : Front: L C R, Side: L R, Back: L R, LFE / Front: L C R, Side: L R, LFE
Sampling rate                            : 48.0 kHz
Frame rate                              : 93.750 FPS (512 SPF)
Bit depth                                : 24 bits
Compression mode                        : Lossless / Lossy
Stream size                              : 3.66 GiB (12%)
Title                                    : Spider-Man.2.2004.2160p.BluRay.x265.10bit.SDR.DTS-HD.MA.TrueHD.7.1.Atmos-SWTYBLZ
Language                                : English
Default                                  : No
Forced                                  : No

Audio #3
ID                                      : 4
Format                                  : AC-3
Format/Info                              : Audio Coding 3
Codec ID                                : A_AC3
Duration                                : 2 h 7 min
Bit rate mode                            : Constant
Bit rate                                : 640 kb/s
Channel(s)                              : 6 channels
Channel positions                        : Front: L C R, Side: L R, LFE
Sampling rate                            : 48.0 kHz
Frame rate                              : 31.250 FPS (1536 SPF)
Bit depth                                : 16 bits
Compression mode                        : Lossy
Stream size                              : 583 MiB (2%)
Title                                    : Spider-Man.2.2004.2160p.BluRay.x265.10bit.SDR.DTS-HD.MA.TrueHD.7.1.Atmos-SWTYBLZ
Language                                : English
Service kind                            : Complete Main
Default                                  : No
Forced                                  : No

Text #1
ID                                      : 5
Format                                  : UTF-8
Codec ID                                : S_TEXT/UTF8
Codec ID/Info                            : UTF-8 Plain Text
Duration                                : 1 h 58 min
Bit rate                                : 37 b/s
Count of elements                        : 1084
Stream size                              : 32.8 KiB (0%)
Title                                    : English-SRT
Language                                : English
Default                                  : Yes
Forced                                  : No

Text #2
ID                                      : 6
Format                                  : PGS
Muxing mode                              : zlib
Codec ID                                : S_HDMV/PGS
Codec ID/Info                            : Picture based subtitle format used on BDs/HD-DVDs
Duration                                : 2 h 6 min
Bit rate                                : 25.8 kb/s
Count of elements                        : 2874
Stream size                              : 23.4 MiB (0%)
Title                                    : English-PGS
Language                                : English
Default                                  : No
Forced                                  : No

Text #3
ID                                      : 7
Format                                  : PGS
Muxing mode                              : zlib
Codec ID                                : S_HDMV/PGS
Codec ID/Info                            : Picture based subtitle format used on BDs/HD-DVDs
Duration                                : 2 h 4 min
Bit rate                                : 21.3 kb/s
Count of elements                        : 2212
Stream size                              : 18.9 MiB (0%)
Title                                    : English-PGS
Language                                : English
Default                                  : No
Forced                                  : No

Text #4
ID                                      : 8
Format                                  : PGS
Muxing mode                              : zlib
Codec ID                                : S_HDMV/PGS
Codec ID/Info                            : Picture based subtitle format used on BDs/HD-DVDs
Duration                                : 2 h 4 min
Bit rate                                : 21.3 kb/s
Count of elements                        : 2216
Stream size                              : 18.9 MiB (0%)
Title                                    : English-PGS
Language                                : English
Default                                  : No
Forced                                  : No

Text #5
ID                                      : 9
Format                                  : PGS
Muxing mode                              : zlib
Codec ID                                : S_HDMV/PGS
Codec ID/Info                            : Picture based subtitle format used on BDs/HD-DVDs
Duration                                : 2 h 4 min
Bit rate                                : 17.9 kb/s
Count of elements                        : 2047
Stream size                              : 16.0 MiB (0%)
Title                                    : French-PGS
Language                                : French
Default                                  : No
Forced                                  : No

Text #6
ID                                      : 10
Format                                  : PGS
Muxing mode                              : zlib
Codec ID                                : S_HDMV/PGS
Codec ID/Info                            : Picture based subtitle format used on BDs/HD-DVDs
Duration                                : 2 h 0 min
Bit rate                                : 19.3 kb/s
Count of elements                        : 2150
Stream size                              : 16.7 MiB (0%)
Title                                    : Portuguese-PGS
Language                                : Portuguese
Default                                  : No
Forced                                  : No

Text #7
ID                                      : 11
Format                                  : PGS
Muxing mode                              : zlib
Codec ID                                : S_HDMV/PGS
Codec ID/Info                            : Picture based subtitle format used on BDs/HD-DVDs
Duration                                : 2 h 4 min
Bit rate                                : 19.8 kb/s
Count of elements                        : 2226
Stream size                              : 17.6 MiB (0%)
Title                                    : Spanish-PGS
Language                                : Spanish
Default                                  : No
Forced                                  : No

Text #8
ID                                      : 12
Format                                  : PGS
Muxing mode                              : zlib
Codec ID                                : S_HDMV/PGS
Codec ID/Info                            : Picture based subtitle format used on BDs/HD-DVDs
Duration                                : 2 h 0 min
Bit rate                                : 21.7 kb/s
Count of elements                        : 2228
Stream size                              : 18.8 MiB (0%)
Title                                    : Spanish-PGS
Language                                : Spanish
Default                                  : No
Forced                                  : No

Menu
00:00:00.000                            : en:Chapter 1
00:08:52.823                            : en:Chapter 2
00:18:29.942                            : en:Chapter 3
00:24:23.712                            : en:Chapter 4
00:31:03.653                            : en:Chapter 5
00:39:07.887                            : en:Chapter 6
00:44:39.009                            : en:Chapter 7
00:53:04.723                            : en:Chapter 8
00:59:36.447                            : en:Chapter 9
01:08:14.423                            : en:Chapter 10
01:13:48.424                            : en:Chapter 11
01:21:24.212                            : en:Chapter 12
01:28:11.869                            : en:Chapter 13
01:37:51.240                            : en:Chapter 14
01:45:28.780                            : en:Chapter 15
01:55:32.926                            : en:Chapter 16

NFO / Screenshots:

Code:

SWEATY BALLZ presents

Spider-Man.2.2004.2160p.BluRay.x265.10bit.SDR.DTS-HD.MA.TrueHD.7.1.Atmos-SWTYBLZ

Converted from 10 bit HDR to 10 bit SDR using tripple mixed Hable-Reinhard-JJ per scene+frame analysis algorithm

Screenshots are 8bit SDR because browsers dont support HDR or 10bit files

http://imagecurl.com/viewer.php?file=61021373376192192961.png
http://imagecurl.com/images/61021373376192192961_thumb.png
http://imagecurl.com/viewer.php?file=68365600665915626017.png
http://imagecurl.com/images/68365600665915626017_thumb.png
http://imagecurl.com/viewer.php?file=40181282158123318469.png
http://imagecurl.com/images/40181282158123318469_thumb.png
http://imagecurl.com/viewer.php?file=26794966840308254225.png
http://imagecurl.com/images/26794966840308254225_thumb.png
http://imagecurl.com/viewer.php?file=41921982385389130765.png
http://imagecurl.com/images/41921982385389130765_thumb.png
http://imagecurl.com/viewer.php?file=08649127711878339095.png
http://imagecurl.com/images/08649127711878339095_thumb.png
http://imagecurl.com/viewer.php?file=83941388721140830070.png
http://imagecurl.com/images/83941388721140830070_thumb.png

http://imdb.com/title/tt0316654/
https://www.youtube.com/watch?v=3jBFwltrxJw

Language(Text): is in the mediainfo
Language(Audio): English
Format: mkv
Size: 29.84 GB
No Pass

Download via Share-Online

Code:

http://www.share-online.biz/dl/VFZ3ZW1P74M
http://www.share-online.biz/dl/6A04ZW1P78M
http://www.share-online.biz/dl/N8Z3ZW1PXK3S
http://www.share-online.biz/dl/BG04ZW1PUOL
http://www.share-online.biz/dl/BF14ZW1PNWB
http://www.share-online.biz/dl/YT04ZW1PMCY
http://www.share-online.biz/dl/J014ZW1PEZ
http://www.share-online.biz/dl/H624ZW1P1P
http://www.share-online.biz/dl/CH14ZW1P0ETS
http://www.share-online.biz/dl/OK14ZW1PHQTO
http://www.share-online.biz/dl/4C24ZW1P51
http://www.share-online.biz/dl/LA24ZW1PAA
http://www.share-online.biz/dl/YS24ZW1PQBE
http://www.share-online.biz/dl/MO34ZW1P6IM
http://www.share-online.biz/dl/IO34ZW1PIMA1
http://www.share-online.biz/dl/B334ZW1P40
http://www.share-online.biz/dl/0L44ZW1PNK
http://www.share-online.biz/dl/OE44ZW1P454B
http://www.share-online.biz/dl/WP44ZW1P0L
http://www.share-online.biz/dl/XC54ZW1POEH
http://www.share-online.biz/dl/XC54ZW1P3E
http://www.share-online.biz/dl/0O54ZW1PUE
http://www.share-online.biz/dl/OT64ZW1PSCVY
http://www.share-online.biz/dl/XG64ZW1PIY3
http://www.share-online.biz/dl/YV54ZW1PIV
http://www.share-online.biz/dl/U764ZW1P3EX5
http://www.share-online.biz/dl/OB64ZW1PJH
http://www.share-online.biz/dl/S074ZW1P4E
http://www.share-online.biz/dl/BR84ZW1PT3Z
http://www.share-online.biz/dl/6H74ZW1PFOX0
http://www.share-online.biz/dl/DI84ZW1PCL
http://www.share-online.biz/dl/HJ84ZW1P6J
http://www.share-online.biz/dl/9F84ZW1PGVL
http://www.share-online.biz/dl/5N94ZW1P1RGN
http://www.share-online.biz/dl/EM94ZW1PNX
http://www.share-online.biz/dl/IY94ZW1PM6
http://www.share-online.biz/dl/R994ZW1PNV6
http://www.share-online.biz/dl/BXA4ZW1P8XT
http://www.share-online.biz/dl/BHA4ZW1PTHF
http://www.share-online.biz/dl/FQB4ZW1PER
http://www.share-online.biz/dl/15B4ZW1PTL8
http://www.share-online.biz/dl/RXB4ZW1PBAT
http://www.share-online.biz/dl/WGB4ZW1PZVT
http://www.share-online.biz/dl/2NC4ZW1PEEZ
http://www.share-online.biz/dl/RIN4ZW1P6V8Q
http://www.share-online.biz/dl/P6C4ZW1PMGWG
http://www.share-online.biz/dl/8WC4ZW1P2Z
http://www.share-online.biz/dl/CXD4ZW1PATW
http://www.share-online.biz/dl/OXC4ZW1PZCV
http://www.share-online.biz/dl/U7D4ZW1PJL
http://www.share-online.biz/dl/4SD4ZW1PJN0
http://www.share-online.biz/dl/DVE4ZW1PX9
http://www.share-online.biz/dl/W2E4ZW1P5HF
http://www.share-online.biz/dl/0XE4ZW1PH07
http://www.share-online.biz/dl/DME4ZW1PKGX
http://www.share-online.biz/dl/1NF4ZW1P20K
http://www.share-online.biz/dl/MUF4ZW1POA7
http://www.share-online.biz/dl/T7G4ZW1PY4E
http://www.share-online.biz/dl/ZGF4ZW1PKQQ
http://www.share-online.biz/dl/HBG4ZW1POSJ3
http://www.share-online.biz/dl/1LH4ZW1PX12
http://www.share-online.biz/dl/00G4ZW1P2YU
http://www.share-online.biz/dl/ANH4ZW1P7X
http://www.share-online.biz/dl/3DH4ZW1PJGB
http://www.share-online.biz/dl/KWH4ZW1P6H6W
http://www.share-online.biz/dl/7LI4ZW1PY6N
http://www.share-online.biz/dl/RJI4ZW1PZ1N
http://www.share-online.biz/dl/Y4I4ZW1PYG4Q
http://www.share-online.biz/dl/UGJ4ZW1P5YC
http://www.share-online.biz/dl/K5J4ZW1PC2
http://www.share-online.biz/dl/KAJ4ZW1P1ZZ
http://www.share-online.biz/dl/0CK4ZW1P1VI
http://www.share-online.biz/dl/Q6K4ZW1PRNG4
http://www.share-online.biz/dl/XAK4ZW1PVU
http://www.share-online.biz/dl/WXK4ZW1POYE
http://www.share-online.biz/dl/NFL4ZW1P4LB
http://www.share-online.biz/dl/8SL4ZW1PWY2
http://www.share-online.biz/dl/URM4ZW1PD5L
http://www.share-online.biz/dl/S0M4ZW1PSA
http://www.share-online.biz/dl/6NM4ZW1PN3
http://www.share-online.biz/dl/4YM4ZW1P60


[Action] Spider-Man 2 2004 2160p BluRay x265 10bit SDR DTS-HD MA TrueHD 7 1 Atmos - SWTYBLZ
Download links:


Related News:


Add comments

Your Name:
Your E-Mail:

Enter the words shown in captcha:


Attention!!! Comments moderated and will not appear immediately. Do not post a comment twice.