[Fantasy] Harry Potter and the Prisoner of Azkaban 2004 2160p BluRay x265 10bit HDR DTS-X 7 1 - DEPTH

Harry.Potter.and.the.Prisoner.of.Azkaban.2004.2160 p.BluRay.x265.10bit.HDR.DTS-X.7.1-DEPTH

Title: Harry Potter and the Prisoner of Azkaban (2004)
IMDB Rating: 7.8/10 from 434382 users Updated : 2017-12-23
Rotten Rating: 7.8/10
RottenTomatoes: [fresh!] 91% [audience liked it!] 86%
Genres: Adventure , Family , Fantasy , Mystery
Actors: Daniel Radcliffe , Emma Watson , Rupert Grint , Richard Griffiths , Pam Ferris , Fiona Shaw , Harry Melling , Adrian Rawlins , Geraldine Somerville ,
Lee Ingleby , Lenny Henry , Jimmy Gardner , Gary Oldman , Jim Tavaré , Robert Hardy , Abby Ford
Director: Alfonso Cuarón
IMDB Runtime: 142
Year: 2004
Plot: Harry Potter is having a tough time with his relatives (yet again). He runs away after using magic to inflate Uncle Vernon's sister Marge who was being offensive
towards Harry's parents. Initially scared for using magic outside the school| he is pleasantly surprised that he won't be penalized after all. However| he soon
learns that a dangerous criminal and Voldemort's trusted aide Sirius Black has escaped from the Azkaban prison and wants to kill Harry to avenge the Dark Lord. To
worsen the conditions for Harry| vile creatures called Dementors are appointed to guard the school gates and inexplicably happen to have the most horrible effect on
him. Little does Harry know that by the end of this year| many holes in his past (whatever he knows of it) will be filled up and he will have a clearer vision of
what the future has in store...
Rotten Plot: Under the assured direction of Alfonso Cuaron, Harry Potter and the Prisoner of Azkaban triumphantly strikes a delicate balance between technical wizardry and
complex storytelling.

Media info:

Code:

Video
ID                                      : 1
Format                                  : HEVC
Format/Info                              : High Efficiency Video Coding
Format profile                          : Main 10@L5.1@High
Codec ID                                : V_MPEGH/ISO/HEVC
Duration                                : 2 h 21 min
Bit rate                                : 17.7 Mb/s
Width                                    : 3 840 pixels
Height                                  : 1 600 pixels
Display aspect ratio                    : 2.40:1
Frame rate mode                          : Constant
Frame rate                              : 23.976 (24000/1001) FPS
Color space                              : YUV
Chroma subsampling                      : 4:2:0 (Type 2)
Bit depth                                : 10 bits
Bits/(Pixel*Frame)                      : 0.120
Stream size                              : 17.6 GiB (80%)
Writing library                          : x265 2.6+22-ff02513b92c0:[Windows][GCC 6.3.0][64 bit] 10bit
Encoding settings                        : cpuid=1173503 / frame-threads=4 / numa-pools=16 / wpp / no-pmode / no-pme / no-psnr / no-ssim / log-level=2 / input-csp=1 / input-res=3840x1600 / interlace=0 / total-frames=203862 / level-idc=51 / high-tier=1 / uhd-bd=0 / ref=4 / no-allow-non-conformance / repeat-headers / annexb / aud / hrd / info / hash=0 / no-temporal-layers / no-open-gop / min-keyint=1 / keyint=24 / gop-lookahead=0 / bframes=4 / b-adapt=2 / b-pyramid / bframe-bias=0 / rc-lookahead=25 / lookahead-slices=4 / scenecut=40 / radl=0 / no-intra-refresh / ctu=64 / min-cu-size=8 / rect / no-amp / max-tu-size=32 / tu-inter-depth=1 / tu-intra-depth=1 / limit-tu=0 / rdoq-level=2 / dynamic-rd=0.00 / no-ssim-rd / signhide / no-tskip / nr-intra=0 / nr-inter=0 / no-constrained-intra / no-strong-intra-smoothing / max-merge=3 / limit-refs=3 / limit-modes / me=3 / subme=3 / merange=57 / temporal-mvp / weightp / no-weightb / no-analyze-src-pics / deblock=-3:-3 / no-sao / no-sao-non-deblock / rd=4 / no-early-skip / rskip / no-fast-intra / no-tskip-fast / no-cu-lossless / no-b-intra / no-splitrd-skip / rdpenalty=0 / psy-rd=2.00 / psy-rdoq=1.00 / no-rd-refine / no-lossless / cbqpoffs=0 / crqpoffs=0 / rc=crf / crf=17.0 / qcomp=0.60 / qpstep=4 / stats-write=0 / stats-read=0 / vbv-maxrate=160000 / vbv-bufsize=160000 / vbv-init=0.9 / crf-max=0.0 / crf-min=0.0 / ipratio=1.40 / pbratio=1.30 / aq-mode=1 / aq-strength=1.00 / cutree / zone-count=0 / no-strict-cbr / qg-size=32 / no-rc-grain / qpmax=69 / qpmin=0 / no-const-vbv / sar=1 / overscan=0 / videoformat=5 / range=0 / colorprim=9 / transfer=16 / colormatrix=9 / chromaloc=1 / chromaloc-top=2 / chromaloc-bottom=2 / display-window=0 / master-display=G(13250,34500)B(7500,3000)R(34000,16000)WP(15635,16450)L(40000000,50) / max-cll=1838,277 / min-luma=0 / max-luma=1023 / log2-max-poc-lsb=8 / vui-timing-info / vui-hrd-info / slices=1 / no-opt-qp-pps / no-opt-ref-list-length-pps / no-multi-pass-opt-rps / scenecut-bias=0.05 / no-opt-cu-delta-qp / no-aq-motion / hdr / hdr-opt / no-dhdr10-opt / analysis-save=(null) / analysis-load=(null) / analysis-reuse-level=5 / scale-factor=0 / refine-intra=0 / refine-inter=0 / refine-mv=0 / no-limit-sao / ctu-info=0 / no-lowpass-dct / refine-mv-type=0 / copy-pic=1
Default                                  : Yes
Forced                                  : No
Color range                              : Limited
Color primaries                          : BT.2020
Transfer characteristics                : PQ
Matrix coefficients                      : BT.2020 non-constant
Mastering display color primaries        : Display P3
Mastering display luminance              : min: 0.0050 cd/m2, max: 4000 cd/m2
Maximum Content Light Level              : 1838 cd/m2
Maximum Frame-Average Light Level        : 277 cd/m2

Audio
ID                                      : 2
Format                                  : DTS
Format/Info                              : Digital Theater Systems
Format profile                          : X / MA / Core
Codec ID                                : A_DTS
Duration                                : 2 h 21 min
Bit rate mode                            : Variable / Variable / Constant
Bit rate                                : 4 227 kb/s / 4 227 kb/s / 1 509 kb/s
Channel(s)                              : Object Based / 8 channels / 6 channels
Channel positions                        : Object Based / Front: L C R, Side: L R, Back: L R, LFE / Front: L C R, Side: L R, LFE
Sampling rate                            :  / 48.0 kHz / 48.0 kHz
Frame rate                              : 93.750 FPS (512 SPF)
Bit depth                                :  / 24 bits / 24 bits
Compression mode                        :  / Lossless / Lossy
Stream size                              : 4.18 GiB (19%)
Language                                : English
Default                                  : Yes
Forced                                  : No

Text #1
ID                                      : 3
Format                                  : PGS
Muxing mode                              : zlib
Codec ID                                : S_HDMV/PGS
Codec ID/Info                            : Picture based subtitle format used on BDs/HD-DVDs
Duration                                : 2 h 21 min
Bit rate                                : 30.2 kb/s
Count of elements                        : 3250
Stream size                              : 30.5 MiB (0%)
Title                                    : SDH
Language                                : English
Default                                  : No
Forced                                  : No

Text #2
ID                                      : 4
Format                                  : PGS
Muxing mode                              : zlib
Codec ID                                : S_HDMV/PGS
Codec ID/Info                            : Picture based subtitle format used on BDs/HD-DVDs
Duration                                : 2 h 21 min
Bit rate                                : 21.7 kb/s
Count of elements                        : 2930
Stream size                              : 21.9 MiB (0%)
Language                                : French
Default                                  : No
Forced                                  : No

Text #3
ID                                      : 5
Format                                  : PGS
Muxing mode                              : zlib
Codec ID                                : S_HDMV/PGS
Codec ID/Info                            : Picture based subtitle format used on BDs/HD-DVDs
Duration                                : 2 h 21 min
Bit rate                                : 33.6 kb/s
Count of elements                        : 3266
Stream size                              : 33.9 MiB (0%)
Language                                : German
Default                                  : No
Forced                                  : No

Text #4
ID                                      : 6
Format                                  : PGS
Muxing mode                              : zlib
Codec ID                                : S_HDMV/PGS
Codec ID/Info                            : Picture based subtitle format used on BDs/HD-DVDs
Duration                                : 2 h 21 min
Bit rate                                : 30.6 kb/s
Count of elements                        : 3270
Stream size                              : 30.9 MiB (0%)
Language                                : Italian
Default                                  : No
Forced                                  : No

Text #5
ID                                      : 7
Format                                  : PGS
Muxing mode                              : zlib
Codec ID                                : S_HDMV/PGS
Codec ID/Info                            : Picture based subtitle format used on BDs/HD-DVDs
Duration                                : 2 h 21 min
Bit rate                                : 25.0 kb/s
Count of elements                        : 2828
Stream size                              : 25.2 MiB (0%)
Language                                : Spanish
Default                                  : No
Forced                                  : No

Text #6
ID                                      : 8
Format                                  : PGS
Muxing mode                              : zlib
Codec ID                                : S_HDMV/PGS
Codec ID/Info                            : Picture based subtitle format used on BDs/HD-DVDs
Duration                                : 2 h 20 min
Bit rate                                : 25.1 kb/s
Count of elements                        : 2774
Stream size                              : 25.2 MiB (0%)
Language                                : Spanish
Default                                  : No
Forced                                  : No

Text #7
ID                                      : 9
Format                                  : PGS
Muxing mode                              : zlib
Codec ID                                : S_HDMV/PGS
Codec ID/Info                            : Picture based subtitle format used on BDs/HD-DVDs
Duration                                : 2 h 21 min
Bit rate                                : 26.8 kb/s
Count of elements                        : 2824
Stream size                              : 27.0 MiB (0%)
Language                                : Portuguese
Default                                  : No
Forced                                  : No

Text #8
ID                                      : 10
Format                                  : PGS
Muxing mode                              : zlib
Codec ID                                : S_HDMV/PGS
Codec ID/Info                            : Picture based subtitle format used on BDs/HD-DVDs
Duration                                : 2 h 20 min
Bit rate                                : 20.3 kb/s
Count of elements                        : 3265
Stream size                              : 20.4 MiB (0%)
Language                                : Japanese
Default                                  : No
Forced                                  : No

Menu
00:00:00.000                            : en:00:00:00.000
00:01:40.100                            : en:00:01:40.100
00:06:36.229                            : en:00:06:36.229
00:12:45.932                            : en:00:12:45.932
00:14:52.517                            : en:00:14:52.517
00:16:12.513                            : en:00:16:12.513
00:18:56.218                            : en:00:18:56.218
00:23:50.387                            : en:00:23:50.387
00:28:50.729                            : en:00:28:50.729
00:31:21.838                            : en:00:31:21.838
00:38:50.161                            : en:00:38:50.161
00:44:45.725                            : en:00:44:45.725
00:47:37.813                            : en:00:47:37.813
00:49:39.935                            : en:00:49:39.935
00:53:43.345                            : en:00:53:43.345
00:57:28.403                            : en:00:57:28.403
01:01:23.722                            : en:01:01:23.722
01:03:23.758                            : en:01:03:23.758
01:07:10.985                            : en:01:07:10.985
01:11:53.476                            : en:01:11:53.476
01:19:10.079                            : en:01:19:10.079
01:22:29.945                            : en:01:22:29.945
01:27:29.202                            : en:01:27:29.202
01:30:13.366                            : en:01:30:13.366
01:34:19.028                            : en:01:34:19.028
01:36:57.228                            : en:01:36:57.228
01:42:24.472                            : en:01:42:24.472
01:45:40.334                            : en:01:45:40.334
01:50:03.597                            : en:01:50:03.597
01:55:33.343                            : en:01:55:33.343
02:00:07.409                            : en:02:00:07.409
02:03:16.055                            : en:02:03:16.055
02:06:02.513                            : en:02:06:02.513
02:08:42.924                            : en:02:08:42.924
02:09:47.405                            : en:02:09:47.405

NFO / Screenshots:

Code:

http://imdb.com/title/tt0304141/
https://www.youtube.com/watch?v=R69laoH02xg

http://imagecurl.com/viewer.php?file=03031866873839652996.png
http://imagecurl.com/images/03031866873839652996_thumb.png
http://imagecurl.com/viewer.php?file=29376297566320974496.png
http://imagecurl.com/images/29376297566320974496_thumb.png
http://imagecurl.com/viewer.php?file=94117008453625659662.png
http://imagecurl.com/images/94117008453625659662_thumb.png
http://imagecurl.com/viewer.php?file=63815810468550537094.png
http://imagecurl.com/images/63815810468550537094_thumb.png
http://imagecurl.com/viewer.php?file=49743506629793240805.png
http://imagecurl.com/images/49743506629793240805_thumb.png
http://imagecurl.com/viewer.php?file=01840916720756512208.png
http://imagecurl.com/images/01840916720756512208_thumb.png

Language(Text): is in the mediainfo
Language(Audio): English
Format: mkv
Size: 22.00 GB
No Pass

Download via Share-Online

Code:

http://www.share-online.biz/dl/EP68H62PQ1X2
http://www.share-online.biz/dl/DL68H62PQZ
http://www.share-online.biz/dl/SI78H62P7SD
http://www.share-online.biz/dl/C898H62PE8
http://www.share-online.biz/dl/CX78H62PYF
http://www.share-online.biz/dl/9888H62PYVBL
http://www.share-online.biz/dl/6V98H62P2G
http://www.share-online.biz/dl/57A8H62PDZ
http://www.share-online.biz/dl/GOB8H62P2S
http://www.share-online.biz/dl/D3A8H62P5MW
http://www.share-online.biz/dl/6VB8H62P02
http://www.share-online.biz/dl/7VC8H62P4P
http://www.share-online.biz/dl/FXD8H62P1MA
http://www.share-online.biz/dl/UKE8H62PSZ1
http://www.share-online.biz/dl/EOD8H62PP2
http://www.share-online.biz/dl/BRF8H62PO7R
http://www.share-online.biz/dl/DKG8H62P3R
http://www.share-online.biz/dl/KOG8H62P50A
http://www.share-online.biz/dl/P2H8H62P74S
http://www.share-online.biz/dl/CIH8H62PHO
http://www.share-online.biz/dl/5KJ8H62P2RH
http://www.share-online.biz/dl/A8I8H62PPK
http://www.share-online.biz/dl/ZQJ8H62PAV6A
http://www.share-online.biz/dl/XKL8H62PBS
http://www.share-online.biz/dl/X5K8H62P505
http://www.share-online.biz/dl/X3M8H62P33
http://www.share-online.biz/dl/G3N8H62P9L
http://www.share-online.biz/dl/KQL8H62PIWR
http://www.share-online.biz/dl/9IN8H62PXKK
http://www.share-online.biz/dl/V5O8H62P81N
http://www.share-online.biz/dl/IWO8H62P54
http://www.share-online.biz/dl/CRQ8H62PC3
http://www.share-online.biz/dl/HNQ8H62P2V
http://www.share-online.biz/dl/4YP8H62PEHX
http://www.share-online.biz/dl/S7S8H62PS1
http://www.share-online.biz/dl/YVR8H62PS8CK
http://www.share-online.biz/dl/6ZS8H62P8T59
http://www.share-online.biz/dl/LLU8H62P9TQ
http://www.share-online.biz/dl/3FT8H62PKWIX
http://www.share-online.biz/dl/2XV8H62P41JU
http://www.share-online.biz/dl/CFU8H62PWS
http://www.share-online.biz/dl/3WV8H62PNJ5S
http://www.share-online.biz/dl/8VW8H62PZN
http://www.share-online.biz/dl/AXX8H62PJG
http://www.share-online.biz/dl/3NY8H62PD20
http://www.share-online.biz/dl/XNX8H62P17
http://www.share-online.biz/dl/58Z8H62PIQ
http://www.share-online.biz/dl/0JZ8H62PE3N
http://www.share-online.biz/dl/LK09H62PMB7
http://www.share-online.biz/dl/FF09H62PEH
http://www.share-online.biz/dl/DD19H62P5UZ3
http://www.share-online.biz/dl/7J29H62PUR
http://www.share-online.biz/dl/Z129H62PIBK
http://www.share-online.biz/dl/YC39H62PA86E
http://www.share-online.biz/dl/NJ49H62P0D
http://www.share-online.biz/dl/IK49H62P7JQ
http://www.share-online.biz/dl/GI59H62PMT
http://www.share-online.biz/dl/PI59H62P7L
http://www.share-online.biz/dl/FA69H62PE1
http://www.share-online.biz/dl/J769H62PH9O


[Fantasy] Harry Potter and the Prisoner of Azkaban 2004 2160p BluRay x265 10bit HDR DTS-X 7 1 - DEPTH
Download links:


Related News:


Add comments

Your Name:
Your E-Mail:

Enter the words shown in captcha:


Attention!!! Comments moderated and will not appear immediately. Do not post a comment twice.