[Sci-Fi] Ghostbusters 1984 2160p BluRay x265 10bit SDR DTS-HD MA TrueHD 7 1 Atmos - SWTYBLZ

Ghostbusters.1984.2160p.BluRay.x265.10bit.SDR.DTS-HD.MA.TrueHD.7.1.Atmos-SWTYBLZ

Title: Ghostbusters (1984)
IMDB Rating: 7.8/10 from 300839 users Updated : 2018-01-13
Rotten Rating: 8.1/10
RottenTomatoes: [fresh!] 97% [audience liked it!] 88%
Genres: Action , Adventure , Comedy , Fantasy
Actors: Bill Murray , Dan Aykroyd , Sigourney Weaver , Harold Ramis , Rick Moranis , Annie Potts , William Atherton , Ernie Hudson , David Margulies ,
Steven Tash , Jennifer Runyon , Slavitza Jovan , Michael Ensign , Alice Drummond , Jordan Charney
Director: Ivan Reitman
IMDB Runtime: 105
Year: 1984
Plot: Peter Venkman| Ray Stantz and Egon work at the University where they delve into the paranormal and fiddle with many unethical experiments on the students. As they
are kicked out of the University do they really understand their knowledge of the paranormal and go into business for themselves. Under the new snazzy business name
of 'Ghostbusters'| and living in the old firehouse building they work out of| they are called to rid New York City of paranormal phenomenon at everyone's whim....
for a price. They make national press as the media thinks and pressures everybody the Ghostbusters are the cause of it all. Thrown in jail by the EPA| the mayor
takes a chance and calls on them to help save the city. Unbeknownst to all| a long dead Gozer worshiper (Evo Shandor) erected downtown apartment building is the
cause of all the paranormal activity. They find out the building could resurrect the ancient Hittite god| Gozer| and bring an end to all of humanity. Who are you
gonna call to stop this ...
Rotten Plot: An infectiously fun blend of special effects and comedy, with Bill Murray's hilarious deadpan performance leading a cast of great comic turns.

Media info:

Code:

Video
ID                                      : 1
Format                                  : HEVC
Format/Info                              : High Efficiency Video Coding
Format profile                          : Main 10@L5.1@High
Codec ID                                : V_MPEGH/ISO/HEVC
Duration                                : 1 h 45 min
Bit rate                                : 64.2 Mb/s
Width                                    : 3 840 pixels
Height                                  : 1 606 pixels
Display aspect ratio                    : 2.40:1
Frame rate mode                          : Constant
Frame rate                              : 23.976 (24000/1001) FPS
Color space                              : YUV
Chroma subsampling                      : 4:2:0
Bit depth                                : 10 bits
Bits/(Pixel*Frame)                      : 0.434
Stream size                              : 47.2 GiB (87%)
Title                                    : Ghostbusters.1984.2160p.BluRay.x265.10bit.SDR.DTS-HD.MA.TrueHD.7.1.Atmos-SWTYBLZ
Writing library                          : x265 2.5+4-b4a5bcfe29c7:[Windows][GCC 4.9.3][64 bit] 10bit
Encoding settings                        : cpuid=1173503 / frame-threads=16 / numa-pools=24,24,24,24 / wpp / no-pmode / no-pme / no-psnr / no-ssim / log-level=2 / input-csp=1 / input-res=3840x1606 / interlace=0 / total-frames=0 / level-idc=51 / high-tier=1 / uhd-bd=0 / ref=3 / no-allow-non-conformance / repeat-headers / annexb / aud / hrd / info / hash=0 / no-temporal-layers / no-open-gop / min-keyint=1 / keyint=24 / bframes=4 / b-adapt=2 / b-pyramid / bframe-bias=0 / rc-lookahead=25 / lookahead-slices=4 / scenecut=40 / no-intra-refresh / ctu=64 / min-cu-size=8 / no-rect / no-amp / max-tu-size=32 / tu-inter-depth=1 / tu-intra-depth=1 / limit-tu=0 / rdoq-level=0 / dynamic-rd=0.00 / no-ssim-rd / signhide / no-tskip / nr-intra=0 / nr-inter=0 / no-constrained-intra / strong-intra-smoothing / max-merge=2 / limit-refs=3 / no-limit-modes / me=1 / subme=2 / merange=57 / temporal-mvp / weightp / no-weightb / no-analyze-src-pics / deblock=0:0 / no-sao / no-sao-non-deblock / rd=3 / no-early-skip / rskip / no-fast-intra / no-tskip-fast / no-cu-lossless / no-b-intra / rdpenalty=0 / psy-rd=2.00 / psy-rdoq=0.00 / no-rd-refine / analysis-reuse-mode=0 / no-lossless / cbqpoffs=0 / crqpoffs=0 / rc=crf / crf=20.0 / qcomp=0.60 / qpstep=4 / stats-write=0 / stats-read=0 / vbv-maxrate=160000 / vbv-bufsize=160000 / vbv-init=0.9 / crf-max=0.0 / crf-min=0.0 / ipratio=1.40 / pbratio=1.30 / aq-mode=1 / aq-strength=1.00 / cutree / zone-count=0 / no-strict-cbr / qg-size=32 / no-rc-grain / qpmax=69 / qpmin=0 / no-const-vbv / sar=1 / overscan=0 / videoformat=5 / range=0 / colorprim=2 / transfer=2 / colormatrix=2 / chromaloc=0 / display-window=0 / max-cll=0,0 / min-luma=0 / max-luma=1023 / log2-max-poc-lsb=8 / vui-timing-info / vui-hrd-info / slices=1 / opt-qp-pps / opt-ref-list-length-pps / no-multi-pass-opt-rps / scenecut-bias=0.05 / no-opt-cu-delta-qp / no-aq-motion / no-hdr / no-hdr-opt / no-dhdr10-opt / analysis-reuse-level=5 / scale-factor=0 / refine-intra=0 / refine-inter=0 / refine-mv=0 / no-limit-sao / ctu-info=0
Default                                  : Yes
Forced                                  : No

Audio #1
ID                                      : 2
Format                                  : TrueHD
Format profile                          : TrueHD+Atmos / TrueHD
Codec ID                                : A_TRUEHD
Duration                                : 1 h 45 min
Bit rate mode                            : Variable
Bit rate                                : 4 500 kb/s
Maximum bit rate                        : 7 719 kb/s
Channel(s)                              : Object Based / 8 channels
Channel positions                        : Object Based / Front: L C R, Side: L R, Back: L R, LFE
Sampling rate                            :  / 48.0 kHz
Frame rate                              : 1 200.000 FPS (40 SPF)
Compression mode                        : Lossless
Stream size                              : 3.30 GiB (6%)
Title                                    : Ghostbusters.1984.2160p.BluRay.x265.10bit.SDR.DTS-HD.MA.TrueHD.7.1.Atmos-SWTYBLZ
Language                                : English
Default                                  : Yes
Forced                                  : No

Audio #2
ID                                      : 3
Format                                  : DTS
Format/Info                              : Digital Theater Systems
Format profile                          : MA / Core
Codec ID                                : A_DTS
Duration                                : 1 h 45 min
Bit rate mode                            : Variable / Constant
Bit rate                                : 3 840 kb/s / 1 509 kb/s
Channel(s)                              : 8 channels / 6 channels
Channel positions                        : Front: L C R, Side: L R, Back: L R, LFE / Front: L C R, Side: L R, LFE
Sampling rate                            : 48.0 kHz
Frame rate                              : 93.750 FPS (512 SPF)
Bit depth                                : 24 bits
Compression mode                        : Lossless / Lossy
Stream size                              : 2.80 GiB (5%)
Title                                    : Ghostbusters.1984.2160p.BluRay.x265.10bit.SDR.DTS-HD.MA.TrueHD.7.1.Atmos-SWTYBLZ
Language                                : English
Default                                  : No
Forced                                  : No

Audio #3
ID                                      : 4
Format                                  : AC-3
Format/Info                              : Audio Coding 3
Codec ID                                : A_AC3
Duration                                : 1 h 45 min
Bit rate mode                            : Constant
Bit rate                                : 640 kb/s
Channel(s)                              : 6 channels
Channel positions                        : Front: L C R, Side: L R, LFE
Sampling rate                            : 48.0 kHz
Frame rate                              : 31.250 FPS (1536 SPF)
Bit depth                                : 16 bits
Compression mode                        : Lossy
Stream size                              : 481 MiB (1%)
Title                                    : Ghostbusters.1984.2160p.BluRay.x265.10bit.SDR.DTS-HD.MA.TrueHD.7.1.Atmos-SWTYBLZ
Language                                : English
Service kind                            : Complete Main
Default                                  : No
Forced                                  : No

Text #1
ID                                      : 5
Format                                  : UTF-8
Codec ID                                : S_TEXT/UTF8
Codec ID/Info                            : UTF-8 Plain Text
Duration                                : 1 h 36 min
Bit rate                                : 63 b/s
Count of elements                        : 1132
Stream size                              : 45.1 KiB (0%)
Title                                    : English-SRT
Language                                : English
Default                                  : Yes
Forced                                  : No

Text #2
ID                                      : 6
Format                                  : PGS
Muxing mode                              : zlib
Codec ID                                : S_HDMV/PGS
Codec ID/Info                            : Picture based subtitle format used on BDs/HD-DVDs
Duration                                : 1 h 38 min
Bit rate                                : 38.6 kb/s
Count of elements                        : 2454
Stream size                              : 27.3 MiB (0%)
Title                                    : English-PGS
Language                                : English
Default                                  : No
Forced                                  : No

Text #3
ID                                      : 7
Format                                  : PGS
Muxing mode                              : zlib
Codec ID                                : S_HDMV/PGS
Codec ID/Info                            : Picture based subtitle format used on BDs/HD-DVDs
Duration                                : 1 h 36 min
Bit rate                                : 36.5 kb/s
Count of elements                        : 2264
Stream size                              : 25.2 MiB (0%)
Title                                    : English-SDH-PGS
Language                                : English
Default                                  : No
Forced                                  : No

Text #4
ID                                      : 8
Format                                  : PGS
Muxing mode                              : zlib
Codec ID                                : S_HDMV/PGS
Codec ID/Info                            : Picture based subtitle format used on BDs/HD-DVDs
Duration                                : 1 h 38 min
Bit rate                                : 38.6 kb/s
Count of elements                        : 2454
Stream size                              : 27.3 MiB (0%)
Title                                    : English-PGS
Language                                : English
Default                                  : No
Forced                                  : No

Text #5
ID                                      : 9
Format                                  : PGS
Muxing mode                              : zlib
Codec ID                                : S_HDMV/PGS
Codec ID/Info                            : Picture based subtitle format used on BDs/HD-DVDs
Duration                                : 1 h 36 min
Bit rate                                : 36.5 kb/s
Count of elements                        : 2264
Stream size                              : 25.2 MiB (0%)
Title                                    : English-SDH-PGS
Language                                : English
Default                                  : No
Forced                                  : No

Text #6
ID                                      : 10
Format                                  : PGS
Muxing mode                              : zlib
Codec ID                                : S_HDMV/PGS
Codec ID/Info                            : Picture based subtitle format used on BDs/HD-DVDs
Duration                                : 1 h 36 min
Bit rate                                : 23.1 kb/s
Count of elements                        : 1616
Stream size                              : 16.0 MiB (0%)
Title                                    : Chinese-PGS
Language                                : Chinese
Default                                  : No
Forced                                  : No

Text #7
ID                                      : 11
Format                                  : PGS
Muxing mode                              : zlib
Codec ID                                : S_HDMV/PGS
Codec ID/Info                            : Picture based subtitle format used on BDs/HD-DVDs
Duration                                : 1 h 36 min
Bit rate                                : 27.4 kb/s
Count of elements                        : 1553
Stream size                              : 18.9 MiB (0%)
Title                                    : Danish-PGS
Language                                : Danish
Default                                  : No
Forced                                  : No

Text #8
ID                                      : 12
Format                                  : PGS
Muxing mode                              : zlib
Codec ID                                : S_HDMV/PGS
Codec ID/Info                            : Picture based subtitle format used on BDs/HD-DVDs
Duration                                : 1 h 36 min
Bit rate                                : 24.8 kb/s
Count of elements                        : 1410
Stream size                              : 17.1 MiB (0%)
Title                                    : Dutch-PGS
Language                                : Dutch
Default                                  : No
Forced                                  : No

Text #9
ID                                      : 13
Format                                  : PGS
Muxing mode                              : zlib
Codec ID                                : S_HDMV/PGS
Codec ID/Info                            : Picture based subtitle format used on BDs/HD-DVDs
Duration                                : 1 h 36 min
Bit rate                                : 26.6 kb/s
Count of elements                        : 1464
Stream size                              : 18.4 MiB (0%)
Title                                    : Finnish-PGS
Language                                : Finnish
Default                                  : No
Forced                                  : No

Text #10
ID                                      : 14
Format                                  : PGS
Muxing mode                              : zlib
Codec ID                                : S_HDMV/PGS
Codec ID/Info                            : Picture based subtitle format used on BDs/HD-DVDs
Duration                                : 1 h 42 min
Bit rate                                : 23.9 kb/s
Count of elements                        : 1565
Stream size                              : 17.5 MiB (0%)
Title                                    : French-PGS
Language                                : French
Default                                  : No
Forced                                  : No

Text #11
ID                                      : 15
Format                                  : PGS
Muxing mode                              : zlib
Codec ID                                : S_HDMV/PGS
Codec ID/Info                            : Picture based subtitle format used on BDs/HD-DVDs
Duration                                : 1 h 36 min
Bit rate                                : 30.7 kb/s
Count of elements                        : 1719
Stream size                              : 21.2 MiB (0%)
Title                                    : German-PGS
Language                                : German
Default                                  : No
Forced                                  : No

Text #12
ID                                      : 16
Format                                  : PGS
Muxing mode                              : zlib
Codec ID                                : S_HDMV/PGS
Codec ID/Info                            : Picture based subtitle format used on BDs/HD-DVDs
Duration                                : 1 h 36 min
Bit rate                                : 25.9 kb/s
Count of elements                        : 2304
Stream size                              : 17.9 MiB (0%)
Title                                    : Hindi-PGS
Language                                : Hindi
Default                                  : No
Forced                                  : No

Text #13
ID                                      : 17
Format                                  : PGS
Muxing mode                              : zlib
Codec ID                                : S_HDMV/PGS
Codec ID/Info                            : Picture based subtitle format used on BDs/HD-DVDs
Duration                                : 1 h 36 min
Bit rate                                : 34.6 kb/s
Count of elements                        : 2290
Stream size                              : 23.9 MiB (0%)
Title                                    : Italian-PGS
Language                                : Italian
Default                                  : No
Forced                                  : No

Text #14
ID                                      : 18
Format                                  : PGS
Muxing mode                              : zlib
Codec ID                                : S_HDMV/PGS
Codec ID/Info                            : Picture based subtitle format used on BDs/HD-DVDs
Duration                                : 1 h 38 min
Bit rate                                : 22.5 kb/s
Count of elements                        : 2134
Stream size                              : 15.9 MiB (0%)
Title                                    : Japanese-PGS
Language                                : Japanese
Default                                  : No
Forced                                  : No

Text #15
ID                                      : 19
Format                                  : PGS
Muxing mode                              : zlib
Codec ID                                : S_HDMV/PGS
Codec ID/Info                            : Picture based subtitle format used on BDs/HD-DVDs
Duration                                : 1 h 36 min
Bit rate                                : 22.1 kb/s
Count of elements                        : 1515
Stream size                              : 15.2 MiB (0%)
Title                                    : Korean-PGS
Language                                : Korean
Default                                  : No
Forced                                  : No

Text #16
ID                                      : 20
Format                                  : PGS
Muxing mode                              : zlib
Codec ID                                : S_HDMV/PGS
Codec ID/Info                            : Picture based subtitle format used on BDs/HD-DVDs
Duration                                : 1 h 37 min
Bit rate                                : 23.4 kb/s
Count of elements                        : 1401
Stream size                              : 16.4 MiB (0%)
Title                                    : Norwegian-PGS
Language                                : Norwegian
Default                                  : No
Forced                                  : No

Text #17
ID                                      : 21
Format                                  : PGS
Muxing mode                              : zlib
Codec ID                                : S_HDMV/PGS
Codec ID/Info                            : Picture based subtitle format used on BDs/HD-DVDs
Duration                                : 1 h 36 min
Bit rate                                : 30.1 kb/s
Count of elements                        : 1946
Stream size                              : 20.8 MiB (0%)
Title                                    : Portuguese-PGS
Language                                : Portuguese
Default                                  : No
Forced                                  : No

Text #18
ID                                      : 22
Format                                  : PGS
Muxing mode                              : zlib
Codec ID                                : S_HDMV/PGS
Codec ID/Info                            : Picture based subtitle format used on BDs/HD-DVDs
Duration                                : 1 h 36 min
Bit rate                                : 27.4 kb/s
Count of elements                        : 1660
Stream size                              : 19.0 MiB (0%)
Title                                    : Portuguese-PGS
Language                                : Portuguese
Default                                  : No
Forced                                  : No

Text #19
ID                                      : 23
Format                                  : PGS
Muxing mode                              : zlib
Codec ID                                : S_HDMV/PGS
Codec ID/Info                            : Picture based subtitle format used on BDs/HD-DVDs
Duration                                : 1 h 36 min
Bit rate                                : 27.4 kb/s
Count of elements                        : 1590
Stream size                              : 18.9 MiB (0%)
Title                                    : Spanish-PGS
Language                                : Spanish
Default                                  : No
Forced                                  : No

Text #20
ID                                      : 24
Format                                  : PGS
Muxing mode                              : zlib
Codec ID                                : S_HDMV/PGS
Codec ID/Info                            : Picture based subtitle format used on BDs/HD-DVDs
Duration                                : 1 h 35 min
Bit rate                                : 35.3 kb/s
Count of elements                        : 2280
Stream size                              : 24.1 MiB (0%)
Title                                    : Spanish-PGS
Language                                : Spanish
Default                                  : No
Forced                                  : No

Text #21
ID                                      : 25
Format                                  : PGS
Muxing mode                              : zlib
Codec ID                                : S_HDMV/PGS
Codec ID/Info                            : Picture based subtitle format used on BDs/HD-DVDs
Duration                                : 1 h 37 min
Bit rate                                : 24.3 kb/s
Count of elements                        : 1458
Stream size                              : 17.0 MiB (0%)
Title                                    : Swedish-PGS
Language                                : Swedish
Default                                  : No
Forced                                  : No

Text #22
ID                                      : 26
Format                                  : PGS
Muxing mode                              : zlib
Codec ID                                : S_HDMV/PGS
Codec ID/Info                            : Picture based subtitle format used on BDs/HD-DVDs
Duration                                : 1 h 36 min
Bit rate                                : 30.1 kb/s
Count of elements                        : 2271
Stream size                              : 20.8 MiB (0%)
Title                                    : Thai-PGS
Language                                : Thai
Default                                  : No
Forced                                  : No

Menu
00:00:00.000                            : en:Chapter 1
00:06:39.065                            : en:Chapter 2
00:15:46.445                            : en:Chapter 3
00:21:50.058                            : en:Chapter 4
00:28:35.755                            : en:Chapter 5
00:34:51.964                            : en:Chapter 6
00:39:06.677                            : en:Chapter 7
00:48:46.715                            : en:Chapter 8
00:52:15.882                            : en:Chapter 9
00:55:04.050                            : en:Chapter 10
01:04:33.411                            : en:Chapter 11
01:10:41.946                            : en:Chapter 12
01:13:35.285                            : en:Chapter 13
01:18:58.525                            : en:Chapter 14
01:25:17.028                            : en:Chapter 15
01:30:44.730                            : en:Chapter 16

NFO / Screenshots:

Code:

SWEATY BALLZ presents

Ghostbusters.1984.2160p.BluRay.x265.10bit.SDR.DTS-HD.MA.TrueHD.7.1.Atmos-SWTYBLZ

Converted from 10 bit HDR to 10 bit SDR using tripple mixed Hable-Reinhard-JJ per scene+frame analysis algorithm

Screenshots are 8bit SDR because browsers dont support HDR or 10bit files

http://imagecurl.com/viewer.php?file=12055835476986887267.png
http://imagecurl.com/images/12055835476986887267_thumb.png
http://imagecurl.com/viewer.php?file=67863319227249400993.png
http://imagecurl.com/images/67863319227249400993_thumb.png
http://imagecurl.com/viewer.php?file=18897227539992398965.png
http://imagecurl.com/images/18897227539992398965_thumb.png
http://imagecurl.com/viewer.php?file=31604569729715503841.png
http://imagecurl.com/images/31604569729715503841_thumb.png
http://imagecurl.com/viewer.php?file=20384289264422164591.png
http://imagecurl.com/images/20384289264422164591_thumb.png
http://imagecurl.com/viewer.php?file=03962817639405379816.png
http://imagecurl.com/images/03962817639405379816_thumb.png
http://imagecurl.com/viewer.php?file=00474760773196853092.png
http://imagecurl.com/images/00474760773196853092_thumb.png

Language(Text): is in the mediainfo
Language(Audio): English
Format: mkv
Size: 54.57 GB
No Pass

Download via Share-Online

Code:

http://www.share-online.biz/dl/I4LLPE2P7YE
http://www.share-online.biz/dl/X4KLPE2PTG
http://www.share-online.biz/dl/4XKLPE2PHVM
http://www.share-online.biz/dl/V1MLPE2P24
http://www.share-online.biz/dl/RANLPE2P3W
http://www.share-online.biz/dl/3ROLPE2P1S
http://www.share-online.biz/dl/FQOLPE2P47
http://www.share-online.biz/dl/YMPLPE2PVW
http://www.share-online.biz/dl/35PLPE2PYX
http://www.share-online.biz/dl/TSRLPE2PG1
http://www.share-online.biz/dl/VRQLPE2PKXU
http://www.share-online.biz/dl/WSSLPE2P0V
http://www.share-online.biz/dl/3UTLPE2PCX
http://www.share-online.biz/dl/Q6ULPE2P6VHH
http://www.share-online.biz/dl/0OULPE2PAX7
http://www.share-online.biz/dl/X2VLPE2PYA
http://www.share-online.biz/dl/NEWLPE2PUQ
http://www.share-online.biz/dl/MRXLPE2PEIF
http://www.share-online.biz/dl/XGYLPE2PTMN
http://www.share-online.biz/dl/NVYLPE2PA5GY
http://www.share-online.biz/dl/VKXLPE2P0C
http://www.share-online.biz/dl/CA0MPE2P5TX
http://www.share-online.biz/dl/530MPE2P3F2P
http://www.share-online.biz/dl/5KZLPE2PU1QU
http://www.share-online.biz/dl/961MPE2PIGR
http://www.share-online.biz/dl/YS2MPE2P8P
http://www.share-online.biz/dl/503MPE2PDTP
http://www.share-online.biz/dl/7A5MPE2PBKUA
http://www.share-online.biz/dl/I44MPE2P7SG
http://www.share-online.biz/dl/FI5MPE2PAT
http://www.share-online.biz/dl/PM6MPE2PF4AO
http://www.share-online.biz/dl/4A7MPE2PQL
http://www.share-online.biz/dl/WK7MPE2PBBQ
http://www.share-online.biz/dl/9A8MPE2PJJHO
http://www.share-online.biz/dl/Y28MPE2PGK
http://www.share-online.biz/dl/DS9MPE2P30
http://www.share-online.biz/dl/D7AMPE2P2Y
http://www.share-online.biz/dl/JYBMPE2PSUS
http://www.share-online.biz/dl/O7BMPE2PGW
http://www.share-online.biz/dl/H1CMPE2PM8EA
http://www.share-online.biz/dl/NOEMPE2POSM
http://www.share-online.biz/dl/5FDMPE2PBS
http://www.share-online.biz/dl/NUEMPE2PS1ZQ
http://www.share-online.biz/dl/1PGMPE2POH
http://www.share-online.biz/dl/3MFMPE2P2H2
http://www.share-online.biz/dl/3BHMPE2P8SD
http://www.share-online.biz/dl/EXHMPE2P97ZG
http://www.share-online.biz/dl/BSIMPE2P0QF
http://www.share-online.biz/dl/8QJMPE2PDR
http://www.share-online.biz/dl/HIKMPE2PS6Y
http://www.share-online.biz/dl/21LMPE2PR9
http://www.share-online.biz/dl/JJMMPE2PXM2
http://www.share-online.biz/dl/FDMMPE2PTL
http://www.share-online.biz/dl/JDNMPE2PD71
http://www.share-online.biz/dl/MZNMPE2PJE
http://www.share-online.biz/dl/ALOMPE2PBZ
http://www.share-online.biz/dl/FHPMPE2PJ8A
http://www.share-online.biz/dl/HHPMPE2PISV
http://www.share-online.biz/dl/CKQMPE2PI4C
http://www.share-online.biz/dl/VSQMPE2PGHP2
http://www.share-online.biz/dl/3MSMPE2P1788
http://www.share-online.biz/dl/WJRMPE2PZMT
http://www.share-online.biz/dl/VCTMPE2PC51
http://www.share-online.biz/dl/ODTMPE2P2U6
http://www.share-online.biz/dl/BYUMPE2PVXI
http://www.share-online.biz/dl/RCVMPE2PC4C
http://www.share-online.biz/dl/DZVMPE2PRU
http://www.share-online.biz/dl/NCWMPE2PTSQJ
http://www.share-online.biz/dl/IOXMPE2PZOP
http://www.share-online.biz/dl/ZIXMPE2POJA
http://www.share-online.biz/dl/N0YMPE2P24
http://www.share-online.biz/dl/ABZMPE2PG4T
http://www.share-online.biz/dl/KLZMPE2PP80
http://www.share-online.biz/dl/DN0NPE2P5E8
http://www.share-online.biz/dl/UI0NPE2P1XM
http://www.share-online.biz/dl/H92NPE2PXQ
http://www.share-online.biz/dl/WF1NPE2PT7X
http://www.share-online.biz/dl/AH3NPE2PTQ
http://www.share-online.biz/dl/XL5NPE2PFYP9
http://www.share-online.biz/dl/1N4NPE2PV88R
http://www.share-online.biz/dl/ED5NPE2PCJNL
http://www.share-online.biz/dl/UL6NPE2P9K2
http://www.share-online.biz/dl/DX7NPE2P54K
http://www.share-online.biz/dl/237NPE2PFM
http://www.share-online.biz/dl/UP8NPE2PSNI0
http://www.share-online.biz/dl/8U9NPE2PIFA
http://www.share-online.biz/dl/PTANPE2P5I
http://www.share-online.biz/dl/8B9NPE2PTP
http://www.share-online.biz/dl/KPBNPE2P0K
http://www.share-online.biz/dl/9FCNPE2PW0
http://www.share-online.biz/dl/EIBNPE2PKI
http://www.share-online.biz/dl/OCDNPE2PKA
http://www.share-online.biz/dl/Q4ENPE2PXF4
http://www.share-online.biz/dl/IGFNPE2PST
http://www.share-online.biz/dl/TEENPE2P7Q
http://www.share-online.biz/dl/BGGNPE2P7KC
http://www.share-online.biz/dl/W9HNPE2PH97
http://www.share-online.biz/dl/M7HNPE2PJ8X
http://www.share-online.biz/dl/L7INPE2P9L
http://www.share-online.biz/dl/1VJNPE2PL9H
http://www.share-online.biz/dl/9KKNPE2PSH
http://www.share-online.biz/dl/VDKNPE2PC8N
http://www.share-online.biz/dl/B4LNPE2P5SEM
http://www.share-online.biz/dl/YFMNPE2P843
http://www.share-online.biz/dl/TRNNPE2PQF
http://www.share-online.biz/dl/XONNPE2P5L2O
http://www.share-online.biz/dl/CZONPE2PLXP
http://www.share-online.biz/dl/VPPNPE2P457
http://www.share-online.biz/dl/Q8PNPE2P6HB
http://www.share-online.biz/dl/LMQNPE2PHJ4X
http://www.share-online.biz/dl/SCRNPE2PC9
http://www.share-online.biz/dl/V6SNPE2PFI3M
http://www.share-online.biz/dl/5YSNPE2PY9L1
http://www.share-online.biz/dl/NYTNPE2PQ6O
http://www.share-online.biz/dl/BYUNPE2PR7D
http://www.share-online.biz/dl/SXVNPE2PLKI
http://www.share-online.biz/dl/WSWNPE2PVP
http://www.share-online.biz/dl/ZGWNPE2P4U2T
http://www.share-online.biz/dl/C8XNPE2PI9
http://www.share-online.biz/dl/OGYNPE2P8YU
http://www.share-online.biz/dl/BEZNPE2P1VYO
http://www.share-online.biz/dl/GJ0OPE2PVHZ
http://www.share-online.biz/dl/KL1OPE2PR6P
http://www.share-online.biz/dl/5I1OPE2PA1F
http://www.share-online.biz/dl/VI1OPE2P2QA
http://www.share-online.biz/dl/0Y2OPE2P7HE
http://www.share-online.biz/dl/H92OPE2PIT
http://www.share-online.biz/dl/GA3OPE2PXWP
http://www.share-online.biz/dl/YQ3OPE2P0P
http://www.share-online.biz/dl/E23OPE2PML
http://www.share-online.biz/dl/8Y3OPE2P6BSP
http://www.share-online.biz/dl/5T4OPE2PCF8
http://www.share-online.biz/dl/0S5OPE2PSR
http://www.share-online.biz/dl/B24OPE2PLI8U
http://www.share-online.biz/dl/SL5OPE2PXH
http://www.share-online.biz/dl/D86OPE2PR23N
http://www.share-online.biz/dl/JH6OPE2P2BWM
http://www.share-online.biz/dl/M57OPE2PW7
http://www.share-online.biz/dl/ZE7OPE2P2X
http://www.share-online.biz/dl/6J8OPE2PI1AZ
http://www.share-online.biz/dl/H88OPE2P47A
http://www.share-online.biz/dl/QX9OPE2PFK
http://www.share-online.biz/dl/PM9OPE2PYJ1W
http://www.share-online.biz/dl/UU9OPE2P95L
http://www.share-online.biz/dl/DL9OPE2P68I
http://www.share-online.biz/dl/DQBOPE2PEBH
http://www.share-online.biz/dl/XFAOPE2PQ2I


[Sci-Fi] Ghostbusters 1984 2160p BluRay x265 10bit SDR DTS-HD MA TrueHD 7 1 Atmos - SWTYBLZ
Download links:


Related News:


Add comments

Your Name:
Your E-Mail:

Enter the words shown in captcha:


Attention!!! Comments moderated and will not appear immediately. Do not post a comment twice.