[Fantasy] Labyrinth 1986 2160p BluRay x265 10bit SDR DTS-HD MA TrueHD 7 1 Atmos - SWTYBLZ

Labyrinth.1986.2160p.BluRay.x265.10bit.SDR.DTS-HD.MA.TrueHD.7.1.Atmos-SWTYBLZ

Title: Labyrinth (1986)
IMDB Rating: 7.4/10 from 104556 users Updated : 2018-01-11
Genres: Adventure , Family , Fantasy , Musical
Actors: David Bowie , Jennifer Connelly , Toby Froud , Shelley Thompson , Christopher Malcolm , Natalie Finland , Shari Weiser , Brian Henson , Ron Mueck ,
Rob Mills , Dave Goelz , David Alan Barclay , David Shaughnessy , Karen Prell , Timothy Bateson
Director: Jim Henson
IMDB Runtime: 101
Year: 1986
Plot: The teenager Sarah is forced by her father and her stepmother to babysit her baby brother Toby while they are outside home. Toby does not stop crying and Sarah
wishes that her brother be taken by the Goblin King. Out of the blue| Toby stops crying and when Sarah looks for him in the cradle| she learns that her wish was
granted and the Goblin King Jareth has taken him to his castle in the Goblin City in the middle of a labyrinth. Sarah repents and asks Jareth to give Toby back; but
the Goblin King tells her that she has to rescue her brother before midnight| otherwise Toby will be turned into a goblin. Soon Sarah teams up with the coward goblin
Hoggle| the beast Ludo and the knight Didymus and his dog Ambrosius in her journey. Will they rescue Toby in time?

Media info:

Code:

Video
ID                                      : 1
Format                                  : HEVC
Format/Info                              : High Efficiency Video Coding
Format profile                          : Main 10@L5.1@High
Codec ID                                : V_MPEGH/ISO/HEVC
Duration                                : 1 h 41 min
Bit rate                                : 65.9 Mb/s
Width                                    : 3 840 pixels
Height                                  : 1 606 pixels
Display aspect ratio                    : 2.40:1
Frame rate mode                          : Constant
Frame rate                              : 23.976 (24000/1001) FPS
Color space                              : YUV
Chroma subsampling                      : 4:2:0
Bit depth                                : 10 bits
Bits/(Pixel*Frame)                      : 0.446
Stream size                              : 46.5 GiB (87%)
Title                                    : Labyrinth.1986.2160p.BluRay.x265.10bit.SDR.DTS-HD.MA.TrueHD.7.1.Atmos-SWTYBLZ
Writing library                          : x265 2.5+4-b4a5bcfe29c7:[Windows][GCC 4.9.3][64 bit] 10bit
Encoding settings                        : cpuid=1173503 / frame-threads=16 / numa-pools=24,24,24,24 / wpp / no-pmode / no-pme / no-psnr / no-ssim / log-level=2 / input-csp=1 / input-res=3840x1606 / interlace=0 / total-frames=0 / level-idc=51 / high-tier=1 / uhd-bd=0 / ref=3 / no-allow-non-conformance / repeat-headers / annexb / aud / hrd / info / hash=0 / no-temporal-layers / no-open-gop / min-keyint=1 / keyint=24 / bframes=4 / b-adapt=2 / b-pyramid / bframe-bias=0 / rc-lookahead=25 / lookahead-slices=4 / scenecut=40 / no-intra-refresh / ctu=64 / min-cu-size=8 / no-rect / no-amp / max-tu-size=32 / tu-inter-depth=1 / tu-intra-depth=1 / limit-tu=0 / rdoq-level=0 / dynamic-rd=0.00 / no-ssim-rd / signhide / no-tskip / nr-intra=0 / nr-inter=0 / no-constrained-intra / strong-intra-smoothing / max-merge=2 / limit-refs=3 / no-limit-modes / me=1 / subme=2 / merange=57 / temporal-mvp / weightp / no-weightb / no-analyze-src-pics / deblock=0:0 / no-sao / no-sao-non-deblock / rd=3 / no-early-skip / rskip / no-fast-intra / no-tskip-fast / no-cu-lossless / no-b-intra / rdpenalty=0 / psy-rd=2.00 / psy-rdoq=0.00 / no-rd-refine / analysis-reuse-mode=0 / no-lossless / cbqpoffs=0 / crqpoffs=0 / rc=crf / crf=20.0 / qcomp=0.60 / qpstep=4 / stats-write=0 / stats-read=0 / vbv-maxrate=160000 / vbv-bufsize=160000 / vbv-init=0.9 / crf-max=0.0 / crf-min=0.0 / ipratio=1.40 / pbratio=1.30 / aq-mode=1 / aq-strength=1.00 / cutree / zone-count=0 / no-strict-cbr / qg-size=32 / no-rc-grain / qpmax=69 / qpmin=0 / no-const-vbv / sar=1 / overscan=0 / videoformat=5 / range=0 / colorprim=2 / transfer=2 / colormatrix=2 / chromaloc=0 / display-window=0 / max-cll=0,0 / min-luma=0 / max-luma=1023 / log2-max-poc-lsb=8 / vui-timing-info / vui-hrd-info / slices=1 / opt-qp-pps / opt-ref-list-length-pps / no-multi-pass-opt-rps / scenecut-bias=0.05 / no-opt-cu-delta-qp / no-aq-motion / no-hdr / no-hdr-opt / no-dhdr10-opt / analysis-reuse-level=5 / scale-factor=0 / refine-intra=0 / refine-inter=0 / refine-mv=0 / no-limit-sao / ctu-info=0
Default                                  : Yes
Forced                                  : No

Audio #1
ID                                      : 2
Format                                  : TrueHD
Format profile                          : TrueHD+Atmos / TrueHD
Codec ID                                : A_TRUEHD
Duration                                : 1 h 41 min
Bit rate mode                            : Variable
Bit rate                                : 4 669 kb/s
Maximum bit rate                        : 7 335 kb/s
Channel(s)                              : Object Based / 8 channels
Channel positions                        : Object Based / Front: L C R, Side: L R, Back: L R, LFE
Sampling rate                            :  / 48.0 kHz
Frame rate                              : 1 200.000 FPS (40 SPF)
Compression mode                        : Lossless
Stream size                              : 3.30 GiB (6%)
Title                                    : Labyrinth.1986.2160p.BluRay.x265.10bit.SDR.DTS-HD.MA.TrueHD.7.1.Atmos-SWTYBLZ
Language                                : English
Default                                  : Yes
Forced                                  : No

Audio #2
ID                                      : 3
Format                                  : DTS
Format/Info                              : Digital Theater Systems
Format profile                          : MA / Core
Codec ID                                : A_DTS
Duration                                : 1 h 41 min
Bit rate mode                            : Variable / Constant
Bit rate                                : 3 840 kb/s / 1 509 kb/s
Channel(s)                              : 8 channels / 6 channels
Channel positions                        : Front: L C R, Side: L R, Back: L R, LFE / Front: L C R, Side: L R, LFE
Sampling rate                            : 48.0 kHz
Frame rate                              : 93.750 FPS (512 SPF)
Bit depth                                : 24 bits
Compression mode                        : Lossless / Lossy
Stream size                              : 2.75 GiB (5%)
Title                                    : Labyrinth.1986.2160p.BluRay.x265.10bit.SDR.DTS-HD.MA.TrueHD.7.1.Atmos-SWTYBLZ
Language                                : English
Default                                  : No
Forced                                  : No

Audio #3
ID                                      : 4
Format                                  : AC-3
Format/Info                              : Audio Coding 3
Codec ID                                : A_AC3
Duration                                : 1 h 41 min
Bit rate mode                            : Constant
Bit rate                                : 640 kb/s
Channel(s)                              : 6 channels
Channel positions                        : Front: L C R, Side: L R, LFE
Sampling rate                            : 48.0 kHz
Frame rate                              : 31.250 FPS (1536 SPF)
Bit depth                                : 16 bits
Compression mode                        : Lossy
Stream size                              : 463 MiB (1%)
Title                                    : Labyrinth.1986.2160p.BluRay.x265.10bit.SDR.DTS-HD.MA.TrueHD.7.1.Atmos-SWTYBLZ
Language                                : English
Service kind                            : Complete Main
Default                                  : No
Forced                                  : No

Text #1
ID                                      : 5
Format                                  : UTF-8
Codec ID                                : S_TEXT/UTF8
Codec ID/Info                            : UTF-8 Plain Text
Duration                                : 1 h 36 min
Bit rate                                : 51 b/s
Count of elements                        : 1330
Stream size                              : 36.3 KiB (0%)
Title                                    : English-SRT
Language                                : English
Default                                  : Yes
Forced                                  : No

Text #2
ID                                      : 6
Format                                  : PGS
Muxing mode                              : zlib
Codec ID                                : S_HDMV/PGS
Codec ID/Info                            : Picture based subtitle format used on BDs/HD-DVDs
Duration                                : 1 h 36 min
Bit rate                                : 30.5 kb/s
Count of elements                        : 2659
Stream size                              : 21.1 MiB (0%)
Title                                    : English-PGS
Language                                : English
Default                                  : No
Forced                                  : No

Text #3
ID                                      : 7
Format                                  : PGS
Muxing mode                              : zlib
Codec ID                                : S_HDMV/PGS
Codec ID/Info                            : Picture based subtitle format used on BDs/HD-DVDs
Duration                                : 1 h 33 min
Bit rate                                : 26.2 kb/s
Count of elements                        : 2118
Stream size                              : 17.6 MiB (0%)
Title                                    : English-SDH-PGS
Language                                : English
Default                                  : No
Forced                                  : No

Text #4
ID                                      : 8
Format                                  : PGS
Muxing mode                              : zlib
Codec ID                                : S_HDMV/PGS
Codec ID/Info                            : Picture based subtitle format used on BDs/HD-DVDs
Duration                                : 1 h 36 min
Bit rate                                : 30.5 kb/s
Count of elements                        : 2659
Stream size                              : 21.1 MiB (0%)
Title                                    : English-PGS
Language                                : English
Default                                  : No
Forced                                  : No

Text #5
ID                                      : 9
Format                                  : PGS
Muxing mode                              : zlib
Codec ID                                : S_HDMV/PGS
Codec ID/Info                            : Picture based subtitle format used on BDs/HD-DVDs
Duration                                : 1 h 33 min
Bit rate                                : 26.2 kb/s
Count of elements                        : 2118
Stream size                              : 17.6 MiB (0%)
Title                                    : English-SDH-PGS
Language                                : English
Default                                  : No
Forced                                  : No

Text #6
ID                                      : 10
Format                                  : PGS
Muxing mode                              : zlib
Codec ID                                : S_HDMV/PGS
Codec ID/Info                            : Picture based subtitle format used on BDs/HD-DVDs
Duration                                : 1 h 33 min
Bit rate                                : 21.8 kb/s
Count of elements                        : 2072
Stream size                              : 14.6 MiB (0%)
Title                                    : Chinese-PGS
Language                                : Chinese
Default                                  : No
Forced                                  : No

Text #7
ID                                      : 11
Format                                  : PGS
Muxing mode                              : zlib
Codec ID                                : S_HDMV/PGS
Codec ID/Info                            : Picture based subtitle format used on BDs/HD-DVDs
Duration                                : 1 h 33 min
Bit rate                                : 21.2 kb/s
Count of elements                        : 2070
Stream size                              : 14.2 MiB (0%)
Title                                    : Czech-PGS
Language                                : Czech
Default                                  : No
Forced                                  : No

Text #8
ID                                      : 12
Format                                  : PGS
Muxing mode                              : zlib
Codec ID                                : S_HDMV/PGS
Codec ID/Info                            : Picture based subtitle format used on BDs/HD-DVDs
Duration                                : 1 h 33 min
Bit rate                                : 22.6 kb/s
Count of elements                        : 1738
Stream size                              : 15.2 MiB (0%)
Title                                    : Danish-PGS
Language                                : Danish
Default                                  : No
Forced                                  : No

Text #9
ID                                      : 13
Format                                  : PGS
Muxing mode                              : zlib
Codec ID                                : S_HDMV/PGS
Codec ID/Info                            : Picture based subtitle format used on BDs/HD-DVDs
Duration                                : 1 h 33 min
Bit rate                                : 22.2 kb/s
Count of elements                        : 1377
Stream size                              : 14.8 MiB (0%)
Title                                    : Dutch-PGS
Language                                : Dutch
Default                                  : No
Forced                                  : No

Text #10
ID                                      : 14
Format                                  : PGS
Muxing mode                              : zlib
Codec ID                                : S_HDMV/PGS
Codec ID/Info                            : Picture based subtitle format used on BDs/HD-DVDs
Duration                                : 1 h 33 min
Bit rate                                : 22.2 kb/s
Count of elements                        : 1691
Stream size                              : 14.9 MiB (0%)
Title                                    : Finnish-PGS
Language                                : Finnish
Default                                  : No
Forced                                  : No

Text #11
ID                                      : 15
Format                                  : PGS
Muxing mode                              : zlib
Codec ID                                : S_HDMV/PGS
Codec ID/Info                            : Picture based subtitle format used on BDs/HD-DVDs
Duration                                : 1 h 38 min
Bit rate                                : 20.8 kb/s
Count of elements                        : 1560
Stream size                              : 14.6 MiB (0%)
Title                                    : French-PGS
Language                                : French
Default                                  : No
Forced                                  : No

Text #12
ID                                      : 16
Format                                  : PGS
Muxing mode                              : zlib
Codec ID                                : S_HDMV/PGS
Codec ID/Info                            : Picture based subtitle format used on BDs/HD-DVDs
Duration                                : 1 h 33 min
Bit rate                                : 24.8 kb/s
Count of elements                        : 1872
Stream size                              : 16.6 MiB (0%)
Title                                    : German-PGS
Language                                : German
Default                                  : No
Forced                                  : No

Text #13
ID                                      : 17
Format                                  : PGS
Muxing mode                              : zlib
Codec ID                                : S_HDMV/PGS
Codec ID/Info                            : Picture based subtitle format used on BDs/HD-DVDs
Duration                                : 1 h 33 min
Bit rate                                : 26.4 kb/s
Count of elements                        : 2112
Stream size                              : 17.7 MiB (0%)
Title                                    : Italian-PGS
Language                                : Italian
Default                                  : No
Forced                                  : No

Text #14
ID                                      : 18
Format                                  : PGS
Muxing mode                              : zlib
Codec ID                                : S_HDMV/PGS
Codec ID/Info                            : Picture based subtitle format used on BDs/HD-DVDs
Duration                                : 1 h 37 min
Bit rate                                : 22.3 kb/s
Count of elements                        : 2281
Stream size                              : 15.5 MiB (0%)
Title                                    : Japanese-PGS
Language                                : Japanese
Default                                  : No
Forced                                  : No

Text #15
ID                                      : 19
Format                                  : PGS
Muxing mode                              : zlib
Codec ID                                : S_HDMV/PGS
Codec ID/Info                            : Picture based subtitle format used on BDs/HD-DVDs
Duration                                : 1 h 39 min
Bit rate                                : 20.3 kb/s
Count of elements                        : 2076
Stream size                              : 14.5 MiB (0%)
Title                                    : Korean-PGS
Language                                : Korean
Default                                  : No
Forced                                  : No

Text #16
ID                                      : 20
Format                                  : PGS
Muxing mode                              : zlib
Codec ID                                : S_HDMV/PGS
Codec ID/Info                            : Picture based subtitle format used on BDs/HD-DVDs
Duration                                : 1 h 33 min
Bit rate                                : 21.7 kb/s
Count of elements                        : 2068
Stream size                              : 14.6 MiB (0%)
Title                                    : Norwegian-PGS
Language                                : Norwegian
Default                                  : No
Forced                                  : No

Text #17
ID                                      : 21
Format                                  : PGS
Muxing mode                              : zlib
Codec ID                                : S_HDMV/PGS
Codec ID/Info                            : Picture based subtitle format used on BDs/HD-DVDs
Duration                                : 1 h 33 min
Bit rate                                : 22.8 kb/s
Count of elements                        : 2070
Stream size                              : 15.3 MiB (0%)
Title                                    : Polish-PGS
Language                                : Polish
Default                                  : No
Forced                                  : No

Text #18
ID                                      : 22
Format                                  : PGS
Muxing mode                              : zlib
Codec ID                                : S_HDMV/PGS
Codec ID/Info                            : Picture based subtitle format used on BDs/HD-DVDs
Duration                                : 1 h 39 min
Bit rate                                : 23.2 kb/s
Count of elements                        : 2066
Stream size                              : 16.5 MiB (0%)
Title                                    : Portuguese-PGS
Language                                : Portuguese
Default                                  : No
Forced                                  : No

Text #19
ID                                      : 23
Format                                  : PGS
Muxing mode                              : zlib
Codec ID                                : S_HDMV/PGS
Codec ID/Info                            : Picture based subtitle format used on BDs/HD-DVDs
Duration                                : 1 h 33 min
Bit rate                                : 24.3 kb/s
Count of elements                        : 2070
Stream size                              : 16.3 MiB (0%)
Title                                    : Greek-PGS
Language                                : Greek
Default                                  : No
Forced                                  : No

Text #20
ID                                      : 24
Format                                  : PGS
Muxing mode                              : zlib
Codec ID                                : S_HDMV/PGS
Codec ID/Info                            : Picture based subtitle format used on BDs/HD-DVDs
Duration                                : 1 h 39 min
Bit rate                                : 29.8 kb/s
Count of elements                        : 2458
Stream size                              : 21.3 MiB (0%)
Title                                    : Spanish-PGS
Language                                : Spanish
Default                                  : No
Forced                                  : No

Text #21
ID                                      : 25
Format                                  : PGS
Muxing mode                              : zlib
Codec ID                                : S_HDMV/PGS
Codec ID/Info                            : Picture based subtitle format used on BDs/HD-DVDs
Duration                                : 1 h 33 min
Bit rate                                : 21.4 kb/s
Count of elements                        : 2068
Stream size                              : 14.3 MiB (0%)
Title                                    : Swedish-PSG
Language                                : Swedish
Default                                  : No
Forced                                  : No

Text #22
ID                                      : 26
Format                                  : PGS
Muxing mode                              : zlib
Codec ID                                : S_HDMV/PGS
Codec ID/Info                            : Picture based subtitle format used on BDs/HD-DVDs
Duration                                : 1 h 33 min
Bit rate                                : 25.5 kb/s
Count of elements                        : 2070
Stream size                              : 17.1 MiB (0%)
Title                                    : Turkish-PGS
Language                                : Turkish
Default                                  : No
Forced                                  : No

Menu
00:00:00.000                            : en:Chapter 1
00:04:09.207                            : en:Chapter 2
00:11:44.537                            : en:Chapter 3
00:16:57.975                            : en:Chapter 4
00:22:20.756                            : en:Chapter 5
00:28:53.523                            : en:Chapter 6
00:33:11.656                            : en:Chapter 7
00:38:52.997                            : en:Chapter 8
00:45:05.661                            : en:Chapter 9
00:50:48.378                            : en:Chapter 10
00:57:20.019                            : en:Chapter 11
01:03:25.468                            : en:Chapter 12
01:09:57.860                            : en:Chapter 13
01:15:50.128                            : en:Chapter 14
01:24:05.999                            : en:Chapter 15
01:30:47.567                            : en:Chapter 16

NFO / Screenshots:

Code:

        SWEATY BALLZ presents

Labyrinth.1986.2160p.BluRay.x265.10bit.SDR.DTS-HD.MA.TrueHD.7.1.Atmos-SWTYBLZ

Converted from 10 bit HDR to 10 bit SDR using tripple mixed Hable-Reinhard-JJ per scene+frame analysis algorithm

Screenshots are 8bit SDR because browsers dont support HDR or 10bit files

http://imagecurl.com/viewer.php?file=05749117315235729594.png
http://imagecurl.com/images/05749117315235729594_thumb.png
http://imagecurl.com/viewer.php?file=52105851332878655380.png
http://imagecurl.com/images/52105851332878655380_thumb.png
http://imagecurl.com/viewer.php?file=23449900092564481330.png
http://imagecurl.com/images/23449900092564481330_thumb.png
http://imagecurl.com/viewer.php?file=51757344379989522774.png
http://imagecurl.com/images/51757344379989522774_thumb.png
http://imagecurl.com/viewer.php?file=58710038019397827016.png
http://imagecurl.com/images/58710038019397827016_thumb.png
http://imagecurl.com/viewer.php?file=65528940387849243514.png
http://imagecurl.com/images/65528940387849243514_thumb.png
http://imagecurl.com/viewer.php?file=89856492235826777145.png
http://imagecurl.com/images/89856492235826777145_thumb.png

http://imdb.com/title/tt0091369/
https://www.youtube.com/watch?v=O2yd4em1I6M

Language(Text): is in the mediainfo
Language(Audio): English
Format: mkv
Size: 53.85 GB
No Pass

Download via Share-Online

Code:

http://www.share-online.biz/dl/M72FZ62PZB8Q
http://www.share-online.biz/dl/CH2FZ62PQK7T
http://www.share-online.biz/dl/UE1FZ62PID5
http://www.share-online.biz/dl/EH4FZ62PUD
http://www.share-online.biz/dl/SX4FZ62P62
http://www.share-online.biz/dl/EC5FZ62PH7A7
http://www.share-online.biz/dl/FB6FZ62PHF15
http://www.share-online.biz/dl/EI7FZ62POIX
http://www.share-online.biz/dl/PM8FZ62P7R2
http://www.share-online.biz/dl/5RAFZ62PZD
http://www.share-online.biz/dl/XL9FZ62P37P
http://www.share-online.biz/dl/N9AFZ62PUNV
http://www.share-online.biz/dl/D8BFZ62PIMD2
http://www.share-online.biz/dl/1PCFZ62P3H
http://www.share-online.biz/dl/2VEFZ62PQDT
http://www.share-online.biz/dl/20FFZ62P9H
http://www.share-online.biz/dl/27FFZ62PPX24
http://www.share-online.biz/dl/XOIFZ62PIQ
http://www.share-online.biz/dl/JPHFZ62PPL7U
http://www.share-online.biz/dl/K8IFZ62PQ9
http://www.share-online.biz/dl/0LJFZ62PC0P
http://www.share-online.biz/dl/Y0MFZ62PA8
http://www.share-online.biz/dl/LRLFZ62PL6AU
http://www.share-online.biz/dl/SWNFZ62P4QHD
http://www.share-online.biz/dl/SANFZ62PBR
http://www.share-online.biz/dl/AYOFZ62PVDJI
http://www.share-online.biz/dl/00QFZ62PFML
http://www.share-online.biz/dl/Z4SFZ62POP
http://www.share-online.biz/dl/LJQFZ62P1K73
http://www.share-online.biz/dl/YBSFZ62PY5YF
http://www.share-online.biz/dl/U7TFZ62PMXU
http://www.share-online.biz/dl/LGVFZ62P1A
http://www.share-online.biz/dl/TKWFZ62P1P
http://www.share-online.biz/dl/J9WFZ62PQZA
http://www.share-online.biz/dl/HSXFZ62PAU
http://www.share-online.biz/dl/DJYFZ62P76
http://www.share-online.biz/dl/GVZFZ62P02
http://www.share-online.biz/dl/FD0GZ62PYSY
http://www.share-online.biz/dl/D91GZ62PMVK
http://www.share-online.biz/dl/7B2GZ62PZL
http://www.share-online.biz/dl/7K2GZ62P2LU6
http://www.share-online.biz/dl/CR5GZ62PDX
http://www.share-online.biz/dl/4V3GZ62P61Z
http://www.share-online.biz/dl/6Q4GZ62PRIT0
http://www.share-online.biz/dl/U46GZ62PLRI
http://www.share-online.biz/dl/7M7GZ62PXJVB
http://www.share-online.biz/dl/E97GZ62POGO
http://www.share-online.biz/dl/6U9GZ62PUU5
http://www.share-online.biz/dl/C2AGZ62P74UN
http://www.share-online.biz/dl/87AGZ62PFYZ
http://www.share-online.biz/dl/UKBGZ62PX75
http://www.share-online.biz/dl/HECGZ62PTQ
http://www.share-online.biz/dl/Y5DGZ62PK13M
http://www.share-online.biz/dl/X8EGZ62PRPGR
http://www.share-online.biz/dl/G3EGZ62PJD
http://www.share-online.biz/dl/NEFGZ62P1D
http://www.share-online.biz/dl/E2HGZ62PHC4M
http://www.share-online.biz/dl/WJGGZ62PUK
http://www.share-online.biz/dl/DKHGZ62PQWA
http://www.share-online.biz/dl/ILJGZ62PYH44
http://www.share-online.biz/dl/UUKGZ62P4G
http://www.share-online.biz/dl/PPKGZ62PQOU
http://www.share-online.biz/dl/7ZLGZ62PWWL
http://www.share-online.biz/dl/UUNGZ62PT648
http://www.share-online.biz/dl/W6MGZ62PXUQ
http://www.share-online.biz/dl/LHNGZ62P1Y2
http://www.share-online.biz/dl/6MOGZ62PG3V
http://www.share-online.biz/dl/OSQGZ62P1Z
http://www.share-online.biz/dl/ZQRGZ62P2TEO
http://www.share-online.biz/dl/UKSGZ62PEADJ
http://www.share-online.biz/dl/6NTGZ62PQLIV
http://www.share-online.biz/dl/WVTGZ62PCOGU
http://www.share-online.biz/dl/JVUGZ62P6LO
http://www.share-online.biz/dl/C4WGZ62PEOBU
http://www.share-online.biz/dl/FPXGZ62POIJ
http://www.share-online.biz/dl/YKVGZ62PPI
http://www.share-online.biz/dl/UAYGZ62PMVQ
http://www.share-online.biz/dl/LC0HZ62P8FS7
http://www.share-online.biz/dl/7H2HZ62PZR2
http://www.share-online.biz/dl/S14HZ62PWF0
http://www.share-online.biz/dl/UB6HZ62P08Q
http://www.share-online.biz/dl/M33HZ62PEJPW
http://www.share-online.biz/dl/1F7HZ62PMKD
http://www.share-online.biz/dl/456HZ62P7D4
http://www.share-online.biz/dl/LJ8HZ62PMJ
http://www.share-online.biz/dl/F49HZ62PM43
http://www.share-online.biz/dl/2FAHZ62P0P
http://www.share-online.biz/dl/8EDHZ62PH1OY
http://www.share-online.biz/dl/6OCHZ62PH2SE
http://www.share-online.biz/dl/RTEHZ62PE9W
http://www.share-online.biz/dl/13GHZ62PL9
http://www.share-online.biz/dl/NWFHZ62PO4
http://www.share-online.biz/dl/3GHHZ62P34
http://www.share-online.biz/dl/KKHHZ62P6G4
http://www.share-online.biz/dl/LNIHZ62P8K
http://www.share-online.biz/dl/WJJHZ62PXWUX
http://www.share-online.biz/dl/0LKHZ62P7T
http://www.share-online.biz/dl/WHLHZ62PX83
http://www.share-online.biz/dl/MBMHZ62P718C
http://www.share-online.biz/dl/H6NHZ62PGN5I
http://www.share-online.biz/dl/1GOHZ62PDCRR
http://www.share-online.biz/dl/GTOHZ62P5JN
http://www.share-online.biz/dl/QRQHZ62PJ5D
http://www.share-online.biz/dl/P3PHZ62PSUE
http://www.share-online.biz/dl/61RHZ62P50K
http://www.share-online.biz/dl/ULTHZ62P8R
http://www.share-online.biz/dl/IQTHZ62P13
http://www.share-online.biz/dl/ERUHZ62PB7
http://www.share-online.biz/dl/LNVHZ62PZCL
http://www.share-online.biz/dl/VNWHZ62PWJ
http://www.share-online.biz/dl/08WHZ62PYF4
http://www.share-online.biz/dl/2SXHZ62P4Z
http://www.share-online.biz/dl/PGYHZ62P7Y
http://www.share-online.biz/dl/EGZHZ62PIF8
http://www.share-online.biz/dl/W80IZ62PRBH
http://www.share-online.biz/dl/KI1IZ62P35
http://www.share-online.biz/dl/SJ3IZ62PMWU
http://www.share-online.biz/dl/SY2IZ62P0K
http://www.share-online.biz/dl/WC3IZ62PSLN
http://www.share-online.biz/dl/MD3IZ62P2XA8
http://www.share-online.biz/dl/N54IZ62P3L
http://www.share-online.biz/dl/LN4IZ62PP7
http://www.share-online.biz/dl/5F4IZ62PBS00
http://www.share-online.biz/dl/GA4IZ62POFO2
http://www.share-online.biz/dl/1Q5IZ62PE1MK
http://www.share-online.biz/dl/7D5IZ62PO0P
http://www.share-online.biz/dl/D45IZ62PTCO
http://www.share-online.biz/dl/KQ5IZ62PMA
http://www.share-online.biz/dl/PK6IZ62P78
http://www.share-online.biz/dl/Y56IZ62PMMZ
http://www.share-online.biz/dl/1K6IZ62PFM
http://www.share-online.biz/dl/MD7IZ62PF6
http://www.share-online.biz/dl/5Y7IZ62P87
http://www.share-online.biz/dl/HR8IZ62PH3T
http://www.share-online.biz/dl/FU8IZ62PF0S
http://www.share-online.biz/dl/0G8IZ62PHZG
http://www.share-online.biz/dl/XX8IZ62P0UE
http://www.share-online.biz/dl/JG9IZ62P6HK
http://www.share-online.biz/dl/K19IZ62PHC
http://www.share-online.biz/dl/SS9IZ62PFLWW
http://www.share-online.biz/dl/YDAIZ62PFDNL
http://www.share-online.biz/dl/F4AIZ62P05K
http://www.share-online.biz/dl/GTAIZ62PF06R
http://www.share-online.biz/dl/DMBIZ62PMI
http://www.share-online.biz/dl/E7BIZ62PZQQ


[Fantasy] Labyrinth 1986 2160p BluRay x265 10bit SDR DTS-HD MA TrueHD 7 1 Atmos - SWTYBLZ
Download links:


Related News:


Add comments

Your Name:
Your E-Mail:

Enter the words shown in captcha:


Attention!!! Comments moderated and will not appear immediately. Do not post a comment twice.