Kingsman : Le Cercle d'or

Kingsman : Le Cercle d'or Qualité Blu-Ray 720p | TRUEFRENCH | Son DTS Origine : britannique Réalisation : Matthew Vaughn Durée : 2h 21min Acteur(s) : Taron Egerton,Colin Firth,Mark Strong Genre : Action,Espionnage,Comédie Date de sortie : 11 octobre 2017(2h 21min) Critiques Spectateurs : 4,1 KINGSMAN, l’élite du renseignement britannique en costume trois pièces, fait face à une menace sans précédent. Alors qu’une bombe s’abat et détruit leur quartier général, les agents font la découverte d’une puissante organisation alliée nommée Statesman, fondée il y a bien longtemps aux Etats-Unis. Face à cet ultime danger, les deux services d’élite n’auront d’autre choix que de réunir leurs forces pour sauver le monde des griffes d’un impitoyable ennemi, qui ne reculera devant rien dans sa quête destructrice. NFO :  Afficher / Masquer le texte Format : Matroska Format version : Version 4 / Version 2 File size : 5.78 GiB Duration : 2 h 21 min Overall bit rate : 5 869 kb/s Encoded date : UTC 2018-01-11 19:27:58 Writing application : mkvmerge v7.8.0 ('River Man') 32bit built on Mar 27 2015 16:18:02 Writing library : libebml v1.3.1 + libmatroska v1.4.2 Video ID : 3 Format : AVC Format/Info : Advanced Video Codec Format profile : High@L4.1 Format settings : CABAC / 5 Ref Frames Format settings, CABAC : Yes Format settings, ReFrames : 5 frames Codec ID : V_MPEG4/ISO/AVC Duration : 2 h 21 min Bit rate : 5 099 kb/s Width : 1 280 pixels Height : 536 pixels Display aspect ratio : 2.40:1 Frame rate mode : Constant Frame rate : 23.976 (24000/1001) FPS Color space : YUV Chroma subsampling : 4:2:0 Bit depth : 8 bits Scan type : Progressive Bits/(Pixel*Frame) : 0.310 Stream size : 5.02 GiB (87%) Writing library : x264 core 152 r2851 ba24899 Encoding settings : cabac=1 / ref=5 / deblock=1:0:0 / analyse=0x3:0x113 / me=umh / subme=7 / psy=1 / psy_rd=1.00:0.00 / mixed_ref=1 / me_range=16 / chroma_me=1 / trellis=1 / 8x8dct=1 / cqm=0 / deadzone=21,11 / fast_pskip=1 / chroma_qp_offset=-2 / threads=17 / lookahead_threads=2 / sliced_threads=0 / nr=0 / decimate=1 / interlaced=0 / bluray_compat=0 / constrained_intra=0 / bframes=3 / b_pyramid=2 / b_adapt=1 / b_bias=0 / direct=3 / weightb=1 / open_gop=0 / weightp=2 / keyint=240 / keyint_min=23 / scenecut=40 / intra_refresh=0 / rc_lookahead=50 / rc=2pass / mbtree=1 / bitrate=5099 / ratetol=1.0 / qcomp=0.60 / qpmin=0 / qpmax=69 / qpstep=4 / cplxblur=20.0 / qblur=0.5 / vbv_maxrate=62500 / vbv_bufsize=78125 / nal_hrd=none / filler=0 / ip_ratio=1.40 / aq=1:1.00 Default : Yes Forced : No Audio ID : 1 Format : DTS Format/Info : Digital Theater Systems Codec ID : A_DTS Duration : 2 h 21 min Bit rate mode : Constant Bit rate : 768 kb/s Channel(s) : 6 channels Channel positions : Front: L C R, Side: L R, LFE Sampling rate : 48.0 kHz Frame rate : 93.750 FPS (512 SPF) Bit depth : 24 bits Compression mode : Lossy Stream size : 775 MiB (13%) Language : French Default : Yes Forced : Yes Text #1 ID : 2 Format : UTF-8 Codec ID : S_TEXT/UTF8 Codec ID/Info : UTF-8 Plain Text Duration : 2 h 7 min Bit rate : 0 b/s Count of elements : 33 Stream size : 587 Bytes (0%) Title : Forced Language : French Default : Yes Forced : Yes Text #2 ID : 4 Format : UTF-8 Codec ID : S_TEXT/UTF8 Codec ID/Info : UTF-8 Plain Text Duration : 2 h 19 min Bit rate : 54 b/s Count of elements : 1718 Stream size : 55.3 KiB (0%) Language : French Default : No Forced : No Menu 00:00:00.000 : en:00:00:00.000 00:04:51.958 : en:00:04:51.958 00:09:39.454 : en:00:09:39.454 00:13:36.607 : en:00:13:36.607 00:18:54.300 : en:00:18:54.300 00:24:57.287 : en:00:24:57.287 00:28:43.347 : en:00:28:43.347 00:32:52.304 : en:00:32:52.304 00:39:18.731 : en:00:39:18.731 00:43:21.849 : en:00:43:21.849 00:48:26.570 : en:00:48:26.570 00:53:54.106 : en:00:53:54.106 00:58:31.258 : en:00:58:31.258 01:05:04.901 : en:01:05:04.901 01:09:52.522 : en:01:09:52.522 01:13:34.744 : en:01:13:34.744 01:19:41.860 : en:01:19:41.860 01:23:45.103 : en:01:23:45.103 01:28:55.288 : en:01:28:55.288 01:33:25.225 : en:01:33:25.225 01:40:14.759 : en:01:40:14.759 01:45:03.255 : en:01:45:03.255 01:49:38.489 : en:01:49:38.489 01:55:15.992 : en:01:55:15.992 02:01:40.835 : en:02:01:40.835 02:05:44.036 : en:02:05:44.036 02:12:36.407 : en:02:12:36.407 02:15:15.274 : en:02:15:15.274


Kingsman : Le Cercle d'or
Download links:


Related News:


Add comments

Your Name:
Your E-Mail:

Enter the words shown in captcha:


Attention!!! Comments moderated and will not appear immediately. Do not post a comment twice.