[Action] Planet der Affen: Revolution 2014 2160p BluRay REMUX HEVC DTS-HD MA 7.1 - FGT

Planet der Affen: Revolution 2014 2160p BluRay REMUX HEVC DTS-HD MA 7.1 - FGT

IMDb


Dauer: 130 Min Format: MPEG-H HEVC Größe: 41.28 GB

Titel:
Planet der Affen: Revolution

Erscheinungsjahr:
2014

Genre:
Sci-Fi, Action

Sprachen:
Deutsch / Englisch / Spanisch / Französisch /
Italienisch / Japanisch

Untertitel:
Ja (siehe NFO)

Handlung
Zehn Jahre sind vergangen, seit das freigesetzte Virus den Großteil der Menschheit ausgerottet hat. Der übrig gebliebene Rest haust in Ruinen der ehemaligen Zivilisation und lebt ein zurückgezogenes Leben im Untergrund. Eine Expedition in die Wälder, angeführt von Malcolm (Jason Clarke), trifft auf das von Caesar (Andy Serkis) angeführte Affenvolk. Malcolm und Ellie (Keri Russell) erwirken ein Friedensabkommen mit Caesar, das jedoch von kurzer Dauer ist. Denn der charismatische Anführer Dreyfus (Gary Oldman) hetzt gegen die Herrschaft der Affen und macht diese für die Beinahe-Ausrottung der Menschen verantwortlich. Dreyfus sammelt eine gewaltbereite Gefolgschaft um sich und provoziert damit einen entscheidenden Kampf zwischen Menschen und Affen, der die Vorherrschaft ein für alle Mal klären wird.

NFO

Code:

Video
ID                                      : 1
Format                                  : HEVC
Format/Info                              : High Efficiency Video Coding
Format profile                          : Main 10@L5.1@High
Codec ID                                : V_MPEGH/ISO/HEVC
Duration                                : 2 h 10 min
Bit rate                                : 35.0 Mb/s
Width                                    : 3 840 pixels
Height                                  : 2 160 pixels
Display aspect ratio                    : 16:9
Frame rate mode                          : Constant
Frame rate                              : 23.976 (24000/1001) FPS
Color space                              : YUV
Chroma subsampling                      : 4:2:0 (Type 2)
Bit depth                                : 10 bits
Bits/(Pixel*Frame)                      : 0.176
Stream size                              : 31.8 GiB (77%)
Title                                    : Dawn.of.the.Planet.of.the.Apes.2014.2160p.BluRay.REMUX.HEVC.DTS-HD.MA.7.1-FGT
Writing library                          : ATEME Titan File 3.7.8 (4.7.8.0)
Default                                  : Yes
Forced                                  : No
Color range                              : Limited
Color primaries                          : BT.2020
Transfer characteristics                : PQ
Matrix coefficients                      : BT.2020 non-constant
Mastering display color primaries        : R: x=0.680000 y=0.320000, G: x=0.265000 y=0.690000, B: x=0.150000 y=0.060000, White point: x=0.312700 y=0.329000
Mastering display luminance              : min: 0.0000 cd/m2, max: 1000.0000 cd/m2

Audio #1
ID                                      : 2
Format                                  : DTS
Format/Info                              : Digital Theater Systems
Format profile                          : MA / ES Matrix / Core
Codec ID                                : A_DTS
Duration                                : 2 h 10 min
Bit rate mode                            : Variable / Constant / Constant
Bit rate                                : 5 102 kb/s / 1 509 kb/s / 1 509 kb/s
Channel(s)                              : 8 channels / 7 channels / 6 channels
Channel positions                        : Front: L C R, Side: L R, Back: L R, LFE / Front: L C R, Side: L R, Back: C, LFE / Front: L C R, Side: L R, LFE
Sampling rate                            : 48.0 kHz
Frame rate                              : 93.750 FPS (512 SPF)
Bit depth                                : 24 bits
Compression mode                        : Lossless / Lossy / Lossy
Stream size                              : 4.65 GiB (11%)
Title                                    : Dawn.of.the.Planet.of.the.Apes.2014.2160p.BluRay.REMUX.HEVC.DTS-HD.MA.7.1-FGT
Language                                : English
Default                                  : Yes
Forced                                  : No

Audio #2
ID                                      : 3
Format                                  : AC-3
Format/Info                              : Audio Coding 3
Codec ID                                : A_AC3
Duration                                : 2 h 10 min
Bit rate mode                            : Constant
Bit rate                                : 448 kb/s
Channel(s)                              : 6 channels
Channel positions                        : Front: L C R, Side: L R, LFE
Sampling rate                            : 48.0 kHz
Frame rate                              : 31.250 FPS (1536 SPF)
Bit depth                                : 16 bits
Compression mode                        : Lossy
Stream size                              : 418 MiB (1%)
Title                                    : Dawn.of.the.Planet.of.the.Apes.2014.2160p.BluRay.REMUX.HEVC.DTS-HD.MA.7.1-FGT
Language                                : English
Service kind                            : Complete Main
Default                                  : No
Forced                                  : No

Audio #3
ID                                      : 4
Format                                  : AC-3
Format/Info                              : Audio Coding 3
Codec ID                                : A_AC3
Duration                                : 2 h 10 min
Bit rate mode                            : Constant
Bit rate                                : 448 kb/s
Channel(s)                              : 6 channels
Channel positions                        : Front: L C R, Side: L R, LFE
Sampling rate                            : 48.0 kHz
Frame rate                              : 31.250 FPS (1536 SPF)
Bit depth                                : 16 bits
Compression mode                        : Lossy
Stream size                              : 418 MiB (1%)
Title                                    : Dawn.of.the.Planet.of.the.Apes.2014.2160p.BluRay.REMUX.HEVC.DTS-HD.MA.7.1-FGT
Language                                : Spanish
Service kind                            : Complete Main
Default                                  : No
Forced                                  : No

Audio #4
ID                                      : 5
Format                                  : DTS
Format/Info                              : Digital Theater Systems
Codec ID                                : A_DTS
Duration                                : 2 h 10 min
Bit rate mode                            : Constant
Bit rate                                : 768 kb/s
Channel(s)                              : 6 channels
Channel positions                        : Front: L C R, Side: L R, LFE
Sampling rate                            : 48.0 kHz
Frame rate                              : 93.750 FPS (512 SPF)
Bit depth                                : 24 bits
Compression mode                        : Lossy
Stream size                              : 716 MiB (2%)
Title                                    : Dawn.of.the.Planet.of.the.Apes.2014.2160p.BluRay.REMUX.HEVC.DTS-HD.MA.7.1-FGT
Language                                : French
Default                                  : No
Forced                                  : No

Audio #5
ID                                      : 6
Format                                  : DTS
Format/Info                              : Digital Theater Systems
Codec ID                                : A_DTS
Duration                                : 2 h 10 min
Bit rate mode                            : Constant
Bit rate                                : 768 kb/s
Channel(s)                              : 6 channels
Channel positions                        : Front: L C R, Side: L R, LFE
Sampling rate                            : 48.0 kHz
Frame rate                              : 93.750 FPS (512 SPF)
Bit depth                                : 24 bits
Compression mode                        : Lossy
Stream size                              : 716 MiB (2%)
Title                                    : Dawn.of.the.Planet.of.the.Apes.2014.2160p.BluRay.REMUX.HEVC.DTS-HD.MA.7.1-FGT
Language                                : Spanish
Default                                  : No
Forced                                  : No

Audio #6
ID                                      : 7
Format                                  : DTS
Format/Info                              : Digital Theater Systems
Codec ID                                : A_DTS
Duration                                : 2 h 10 min
Bit rate mode                            : Constant
Bit rate                                : 768 kb/s
Channel(s)                              : 6 channels
Channel positions                        : Front: L C R, Side: L R, LFE
Sampling rate                            : 48.0 kHz
Frame rate                              : 93.750 FPS (512 SPF)
Bit depth                                : 24 bits
Compression mode                        : Lossy
Stream size                              : 716 MiB (2%)
Title                                    : Dawn.of.the.Planet.of.the.Apes.2014.2160p.BluRay.REMUX.HEVC.DTS-HD.MA.7.1-FGT
Language                                : German
Default                                  : No
Forced                                  : No

Audio #7
ID                                      : 8
Format                                  : DTS
Format/Info                              : Digital Theater Systems
Codec ID                                : A_DTS
Duration                                : 2 h 10 min
Bit rate mode                            : Constant
Bit rate                                : 768 kb/s
Channel(s)                              : 6 channels
Channel positions                        : Front: L C R, Side: L R, LFE
Sampling rate                            : 48.0 kHz
Frame rate                              : 93.750 FPS (512 SPF)
Bit depth                                : 24 bits
Compression mode                        : Lossy
Stream size                              : 716 MiB (2%)
Title                                    : Dawn.of.the.Planet.of.the.Apes.2014.2160p.BluRay.REMUX.HEVC.DTS-HD.MA.7.1-FGT
Language                                : Italian
Default                                  : No
Forced                                  : No

Audio #8
ID                                      : 9
Format                                  : DTS
Format/Info                              : Digital Theater Systems
Codec ID                                : A_DTS
Duration                                : 2 h 10 min
Bit rate mode                            : Constant
Bit rate                                : 768 kb/s
Channel(s)                              : 6 channels
Channel positions                        : Front: L C R, Side: L R, LFE
Sampling rate                            : 48.0 kHz
Frame rate                              : 93.750 FPS (512 SPF)
Bit depth                                : 24 bits
Compression mode                        : Lossy
Stream size                              : 716 MiB (2%)
Title                                    : Dawn.of.the.Planet.of.the.Apes.2014.2160p.BluRay.REMUX.HEVC.DTS-HD.MA.7.1-FGT
Language                                : Japanese
Default                                  : No
Forced                                  : No

Audio #9
ID                                      : 10
Format                                  : AC-3
Format/Info                              : Audio Coding 3
Codec ID                                : A_AC3
Duration                                : 2 h 10 min
Bit rate mode                            : Constant
Bit rate                                : 224 kb/s
Channel(s)                              : 2 channels
Channel positions                        : Front: L R
Sampling rate                            : 48.0 kHz
Frame rate                              : 31.250 FPS (1536 SPF)
Bit depth                                : 16 bits
Compression mode                        : Lossy
Stream size                              : 209 MiB (0%)
Title                                    : Dawn.of.the.Planet.of.the.Apes.2014.2160p.BluRay.REMUX.HEVC.DTS-HD.MA.7.1-FGT
Language                                : English
Service kind                            : Complete Main
Default                                  : No
Forced                                  : No

Text #1
ID                                      : 11
Format                                  : PGS
Muxing mode                              : zlib
Codec ID                                : S_HDMV/PGS
Codec ID/Info                            : Picture based subtitle format used on BDs/HD-DVDs
Duration                                : 1 h 58 min
Bit rate                                : 22.9 kb/s
Count of elements                        : 2562
Stream size                              : 19.5 MiB (0%)
Title                                    : English-PGS
Language                                : English
Default                                  : Yes
Forced                                  : No

Text #2
ID                                      : 12
Format                                  : PGS
Muxing mode                              : zlib
Codec ID                                : S_HDMV/PGS
Codec ID/Info                            : Picture based subtitle format used on BDs/HD-DVDs
Duration                                : 2 h 9 min
Bit rate                                : 14.4 kb/s
Count of elements                        : 1716
Stream size                              : 13.3 MiB (0%)
Title                                    : Spanish-PGS
Language                                : Spanish
Default                                  : No
Forced                                  : No

Text #3
ID                                      : 13
Format                                  : PGS
Muxing mode                              : zlib
Codec ID                                : S_HDMV/PGS
Codec ID/Info                            : Picture based subtitle format used on BDs/HD-DVDs
Duration                                : 2 h 9 min
Bit rate                                : 11.7 kb/s
Count of elements                        : 1574
Stream size                              : 10.8 MiB (0%)
Title                                    : French-PGS
Language                                : French
Default                                  : No
Forced                                  : No

Text #4
ID                                      : 14
Format                                  : PGS
Muxing mode                              : zlib
Codec ID                                : S_HDMV/PGS
Codec ID/Info                            : Picture based subtitle format used on BDs/HD-DVDs
Duration                                : 2 h 9 min
Bit rate                                : 13.7 kb/s
Count of elements                        : 1728
Stream size                              : 12.7 MiB (0%)
Title                                    : Spanish-PGS
Language                                : Spanish
Default                                  : No
Forced                                  : No

Text #5
ID                                      : 15
Format                                  : PGS
Muxing mode                              : zlib
Codec ID                                : S_HDMV/PGS
Codec ID/Info                            : Picture based subtitle format used on BDs/HD-DVDs
Duration                                : 2 h 9 min
Bit rate                                : 13.2 kb/s
Count of elements                        : 1626
Stream size                              : 12.2 MiB (0%)
Title                                    : Danish-PGS
Language                                : Danish
Default                                  : No
Forced                                  : No

Text #6
ID                                      : 16
Format                                  : PGS
Muxing mode                              : zlib
Codec ID                                : S_HDMV/PGS
Codec ID/Info                            : Picture based subtitle format used on BDs/HD-DVDs
Duration                                : 2 h 9 min
Bit rate                                : 12.1 kb/s
Count of elements                        : 1532
Stream size                              : 11.2 MiB (0%)
Title                                    : Dutch-PGS
Language                                : Dutch
Default                                  : No
Forced                                  : No

Text #7
ID                                      : 17
Format                                  : PGS
Muxing mode                              : zlib
Codec ID                                : S_HDMV/PGS
Codec ID/Info                            : Picture based subtitle format used on BDs/HD-DVDs
Duration                                : 2 h 9 min
Bit rate                                : 12.3 kb/s
Count of elements                        : 1688
Stream size                              : 11.4 MiB (0%)
Title                                    : Finnish-PGS
Language                                : Finnish
Default                                  : No
Forced                                  : No

Text #8
ID                                      : 18
Format                                  : PGS
Muxing mode                              : zlib
Codec ID                                : S_HDMV/PGS
Codec ID/Info                            : Picture based subtitle format used on BDs/HD-DVDs
Duration                                : 2 h 9 min
Bit rate                                : 14.8 kb/s
Count of elements                        : 1704
Stream size                              : 13.7 MiB (0%)
Title                                    : German-PGS
Language                                : German
Default                                  : No
Forced                                  : No

Text #9
ID                                      : 19
Format                                  : PGS
Muxing mode                              : zlib
Codec ID                                : S_HDMV/PGS
Codec ID/Info                            : Picture based subtitle format used on BDs/HD-DVDs
Duration                                : 2 h 9 min
Bit rate                                : 13.4 kb/s
Count of elements                        : 1754
Stream size                              : 12.4 MiB (0%)
Title                                    : Italian-PGS
Language                                : Italian
Default                                  : No
Forced                                  : No

Text #10
ID                                      : 20
Format                                  : PGS
Muxing mode                              : zlib
Codec ID                                : S_HDMV/PGS
Codec ID/Info                            : Picture based subtitle format used on BDs/HD-DVDs
Duration                                : 2 h 9 min
Bit rate                                : 9 641 b/s
Count of elements                        : 1526
Stream size                              : 8.91 MiB (0%)
Title                                    : Japanese-PGS
Language                                : Japanese
Default                                  : No
Forced                                  : No

Text #11
ID                                      : 21
Format                                  : PGS
Muxing mode                              : zlib
Codec ID                                : S_HDMV/PGS
Codec ID/Info                            : Picture based subtitle format used on BDs/HD-DVDs
Duration                                : 1 h 40 min
Bit rate                                : 2 086 b/s
Count of elements                        : 250
Stream size                              : 1.49 MiB (0%)
Title                                    : Japanese-PGS
Language                                : Japanese
Default                                  : No
Forced                                  : No

Text #12
ID                                      : 22
Format                                  : PGS
Muxing mode                              : zlib
Codec ID                                : S_HDMV/PGS
Codec ID/Info                            : Picture based subtitle format used on BDs/HD-DVDs
Duration                                : 2 h 9 min
Bit rate                                : 13.3 kb/s
Count of elements                        : 1746
Stream size                              : 12.3 MiB (0%)
Title                                    : Norwegian-PGS
Language                                : Norwegian
Default                                  : No
Forced                                  : No

Text #13
ID                                      : 23
Format                                  : PGS
Muxing mode                              : zlib
Codec ID                                : S_HDMV/PGS
Codec ID/Info                            : Picture based subtitle format used on BDs/HD-DVDs
Duration                                : 2 h 9 min
Bit rate                                : 13.5 kb/s
Count of elements                        : 1750
Stream size                              : 12.5 MiB (0%)
Title                                    : Swedish-PGS
Language                                : Swedish
Default                                  : No
Forced                                  : No

Text #14
ID                                      : 24
Format                                  : PGS
Muxing mode                              : zlib
Codec ID                                : S_HDMV/PGS
Codec ID/Info                            : Picture based subtitle format used on BDs/HD-DVDs
Duration                                : 2 h 9 min
Bit rate                                : 11.0 kb/s
Count of elements                        : 1764
Stream size                              : 10.2 MiB (0%)
Title                                    : Chinese-PGS
Language                                : Chinese
Default                                  : No
Forced                                  : No

Text #15
ID                                      : 25
Format                                  : PGS
Muxing mode                              : zlib
Codec ID                                : S_HDMV/PGS
Codec ID/Info                            : Picture based subtitle format used on BDs/HD-DVDs
Duration                                : 2 h 9 min
Bit rate                                : 11.0 kb/s
Count of elements                        : 1825
Stream size                              : 10.2 MiB (0%)
Title                                    : Chinese-PGS
Language                                : Chinese
Default                                  : No
Forced                                  : No

Text #16
ID                                      : 26
Format                                  : PGS
Muxing mode                              : zlib
Codec ID                                : S_HDMV/PGS
Codec ID/Info                            : Picture based subtitle format used on BDs/HD-DVDs
Duration                                : 2 h 1 min
Bit rate                                : 77.9 kb/s
Count of elements                        : 4148
Stream size                              : 67.8 MiB (0%)
Title                                    : English-COMMENTARY-PGS
Language                                : English
Default                                  : No
Forced                                  : No

Text #17
ID                                      : 27
Format                                  : PGS
Muxing mode                              : zlib
Codec ID                                : S_HDMV/PGS
Codec ID/Info                            : Picture based subtitle format used on BDs/HD-DVDs
Duration                                : 2 h 9 min
Bit rate                                : 63.2 kb/s
Count of elements                        : 4042
Stream size                              : 58.7 MiB (0%)
Title                                    : French-COMMENTARY-PGS
Language                                : French
Default                                  : No
Forced                                  : No

Text #18
ID                                      : 28
Format                                  : PGS
Muxing mode                              : zlib
Codec ID                                : S_HDMV/PGS
Codec ID/Info                            : Picture based subtitle format used on BDs/HD-DVDs
Duration                                : 2 h 9 min
Bit rate                                : 62.9 kb/s
Count of elements                        : 4056
Stream size                              : 58.4 MiB (0%)
Title                                    : Spanish-COMMENTARY-PGS
Language                                : Spanish
Default                                  : No
Forced                                  : No

Text #19
ID                                      : 29
Format                                  : PGS
Muxing mode                              : zlib
Codec ID                                : S_HDMV/PGS
Codec ID/Info                            : Picture based subtitle format used on BDs/HD-DVDs
Duration                                : 2 h 9 min
Bit rate                                : 58.3 kb/s
Count of elements                        : 4054
Stream size                              : 54.1 MiB (0%)
Title                                    : Danish-COMMENTARY-PGS
Language                                : Danish
Default                                  : No
Forced                                  : No

Text #20
ID                                      : 30
Format                                  : PGS
Muxing mode                              : zlib
Codec ID                                : S_HDMV/PGS
Codec ID/Info                            : Picture based subtitle format used on BDs/HD-DVDs
Duration                                : 2 h 9 min
Bit rate                                : 61.7 kb/s
Count of elements                        : 4024
Stream size                              : 57.3 MiB (0%)
Title                                    : Dutch-COMMENTARY-PGS
Language                                : Dutch
Default                                  : No
Forced                                  : No

Text #21
ID                                      : 31
Format                                  : PGS
Muxing mode                              : zlib
Codec ID                                : S_HDMV/PGS
Codec ID/Info                            : Picture based subtitle format used on BDs/HD-DVDs
Duration                                : 2 h


[Action] Planet der Affen: Revolution 2014 2160p BluRay REMUX HEVC DTS-HD MA 7.1 - FGT
Download links:


Related News:


Add comments

Your Name:
Your E-Mail:

Enter the words shown in captcha:


Attention!!! Comments moderated and will not appear immediately. Do not post a comment twice.