[Action] Terminator 2 - Tag der Abrechnung 1991 EXTENDED REMASTERED 1080p BluRay REMUX AVC DTS-HD MA 5.1 - FG

Terminator 2 - Tag der Abrechnung 1991 EXTENDED REMASTERED 1080p BluRay REMUX AVC DTS-HD MA 5.1 - FGT

IMDb


Dauer: 137 Min Format: MPEG-4 AVC Größe: 38.03 GB

Titel:
Terminator 2 - Tag der Abrechnung

Erscheinungsjahr:
1991

Genre:
Sci-Fi, Action

Sprachen:
Deutsch / Englisch / Französisch

Untertitel:
Ja (siehe NFO)

Handlung
Nachdem der erste Versuch, den 1985 geborenen Anführer des Widerstandes in der Vergangenheit zu töten, gescheitert ist, unternehmen die Cyborgs des Jahres 2029 einen zweiten Versuch, John Connors junge Version (Edward Furlong) auszuschalten. Diesmal soll es der T-1000-Terminator (Robert Patrick) richten, eine Maschine aus flüssigem Metall, die in der Lage ist, jede beliebige Form anzunehmen. Doch dieser Terminator ist nicht der einzige KIllerroboter, der in die Vergangenheit geschickt wird, denn das Ur-Modell aus der T-800-Serie (Arnold Schwarzenegger) wurde in der Zukunft von den Rebellen darauf programmiert, Connor um jeden Preis zu schützen. Gemeinsam mit Johns Mutter Sarah (Linda Hamilton) gibt er sein Bestes, den Jungen am Leben zu halten. Es beginnt eine gnadenlose Jagd um das Schicksal eines Kindes und das Überleben der Menschheit...

NFO

Code:

Video
ID                                      : 1
Format                                  : AVC
Format/Info                              : Advanced Video Codec
Format profile                          : High@L4.1
Format settings                          : CABAC / 4 Ref Frames
Format settings, CABAC                  : Yes
Format settings, ReFrames                : 4 frames
Codec ID                                : V_MPEG4/ISO/AVC
Duration                                : 2 h 35 min
Bit rate mode                            : Variable
Maximum bit rate                        : 31.0 Mb/s
Width                                    : 1 920 pixels
Height                                  : 1 080 pixels
Display aspect ratio                    : 16:9
Frame rate mode                          : Constant
Frame rate                              : 23.976 (24000/1001) FPS
Color space                              : YUV
Chroma subsampling                      : 4:2:0
Bit depth                                : 8 bits
Scan type                                : Progressive
Title                                    : Terminator.2.Judgment.Day.1991.EXTENDED.REMASTERED.1080p.BluRay.REMUX.AVC.DTS-HD.MA.5.1-FGT
Language                                : English
Default                                  : No
Forced                                  : No

Audio #1
ID                                      : 2
Format                                  : DTS
Format/Info                              : Digital Theater Systems
Format profile                          : MA / Core
Codec ID                                : A_DTS
Duration                                : 2 h 35 min
Bit rate mode                            : Variable / Constant
Bit rate                                : Unknown / 1 509 kb/s
Channel(s)                              : 6 channels
Channel positions                        : Front: L C R, Side: L R, LFE
Sampling rate                            : 48.0 kHz
Frame rate                              : 93.750 FPS (512 SPF)
Bit depth                                : 24 bits
Compression mode                        : Lossless / Lossy
Title                                    : Terminator.2.Judgment.Day.1991.EXTENDED.REMASTERED.1080p.BluRay.REMUX.AVC.DTS-HD.MA.5.1-FGT
Language                                : English
Default                                  : Yes
Forced                                  : No

Audio #2
ID                                      : 3
Format                                  : DTS
Format/Info                              : Digital Theater Systems
Codec ID                                : A_DTS
Duration                                : 2 h 35 min
Bit rate mode                            : Constant
Bit rate                                : 1 509 kb/s
Channel(s)                              : 6 channels
Channel positions                        : Front: L C R, Side: L R, LFE
Sampling rate                            : 48.0 kHz
Frame rate                              : 93.750 FPS (512 SPF)
Bit depth                                : 24 bits
Compression mode                        : Lossy
Stream size                              : 1.64 GiB (4%)
Title                                    : Terminator.2.Judgment.Day.1991.EXTENDED.REMASTERED.1080p.BluRay.REMUX.AVC.DTS-HD.MA.5.1-FGT
Language                                : English
Default                                  : No
Forced                                  : No

Audio #3
ID                                      : 4
Format                                  : DTS
Format/Info                              : Digital Theater Systems
Format profile                          : MA / Core
Codec ID                                : A_DTS
Duration                                : 2 h 35 min
Bit rate mode                            : Variable / Constant
Bit rate                                : Unknown / 1 509 kb/s
Channel(s)                              : 6 channels
Channel positions                        : Front: L C R, Side: L R, LFE
Sampling rate                            : 48.0 kHz
Frame rate                              : 93.750 FPS (512 SPF)
Bit depth                                : 16 bits
Compression mode                        : Lossless / Lossy
Title                                    : Terminator.2.Judgment.Day.1991.EXTENDED.REMASTERED.1080p.BluRay.REMUX.AVC.DTS-HD.MA.5.1-FGT
Language                                : French
Default                                  : No
Forced                                  : No

Audio #4
ID                                      : 5
Format                                  : DTS
Format/Info                              : Digital Theater Systems
Codec ID                                : A_DTS
Duration                                : 2 h 35 min
Bit rate mode                            : Constant
Bit rate                                : 1 509 kb/s
Channel(s)                              : 6 channels
Channel positions                        : Front: L C R, Side: L R, LFE
Sampling rate                            : 48.0 kHz
Frame rate                              : 93.750 FPS (512 SPF)
Bit depth                                : 16 bits
Compression mode                        : Lossy
Stream size                              : 1.64 GiB (4%)
Title                                    : Terminator.2.Judgment.Day.1991.EXTENDED.REMASTERED.1080p.BluRay.REMUX.AVC.DTS-HD.MA.5.1-FGT
Language                                : French
Default                                  : No
Forced                                  : No

Audio #5
ID                                      : 6
Format                                  : DTS
Format/Info                              : Digital Theater Systems
Format profile                          : MA / Core
Codec ID                                : A_DTS
Duration                                : 2 h 35 min
Bit rate mode                            : Variable / Constant
Bit rate                                : Unknown / 1 509 kb/s
Channel(s)                              : 8 channels / 6 channels
Channel positions                        : Front: L C R, Side: L R, Back: L R, LFE / Front: L C R, Side: L R, LFE
Sampling rate                            : 48.0 kHz
Frame rate                              : 93.750 FPS (512 SPF)
Bit depth                                : 16 bits
Compression mode                        : Lossless / Lossy
Title                                    : Terminator.2.Judgment.Day.1991.EXTENDED.REMASTERED.1080p.BluRay.REMUX.AVC.DTS-HD.MA.5.1-FGT
Language                                : German
Default                                  : No
Forced                                  : No

Audio #6
ID                                      : 7
Format                                  : DTS
Format/Info                              : Digital Theater Systems
Codec ID                                : A_DTS
Duration                                : 2 h 35 min
Bit rate mode                            : Constant
Bit rate                                : 1 509 kb/s
Channel(s)                              : 6 channels
Channel positions                        : Front: L C R, Side: L R, LFE
Sampling rate                            : 48.0 kHz
Frame rate                              : 93.750 FPS (512 SPF)
Bit depth                                : 16 bits
Compression mode                        : Lossy
Stream size                              : 1.64 GiB (4%)
Title                                    : Terminator.2.Judgment.Day.1991.EXTENDED.REMASTERED.1080p.BluRay.REMUX.AVC.DTS-HD.MA.5.1-FGT
Language                                : German
Default                                  : No
Forced                                  : No

Audio #7
ID                                      : 8
Format                                  : AC-3
Format/Info                              : Audio Coding 3
Codec ID                                : A_AC3
Duration                                : 2 h 35 min
Bit rate mode                            : Constant
Bit rate                                : 320 kb/s
Channel(s)                              : 2 channels
Channel positions                        : Front: L R
Sampling rate                            : 48.0 kHz
Frame rate                              : 31.250 FPS (1536 SPF)
Bit depth                                : 16 bits
Compression mode                        : Lossy
Stream size                              : 357 MiB (1%)
Title                                    : Terminator.2.Judgment.Day.1991.EXTENDED.REMASTERED.1080p.BluRay.REMUX.AVC.DTS-HD.MA.5.1-FGT
Language                                : English
Service kind                            : Complete Main
Default                                  : No
Forced                                  : No

Text #1
ID                                      : 9
Format                                  : PGS
Muxing mode                              : zlib
Codec ID                                : S_HDMV/PGS
Codec ID/Info                            : Picture based subtitle format used on BDs/HD-DVDs
Title                                    : English-PGS
Language                                : English
Default                                  : Yes
Forced                                  : No

Text #2
ID                                      : 10
Format                                  : PGS
Muxing mode                              : zlib
Codec ID                                : S_HDMV/PGS
Codec ID/Info                            : Picture based subtitle format used on BDs/HD-DVDs
Title                                    : French-PGS
Language                                : French
Default                                  : No
Forced                                  : No

Text #3
ID                                      : 11
Format                                  : PGS
Muxing mode                              : zlib
Codec ID                                : S_HDMV/PGS
Codec ID/Info                            : Picture based subtitle format used on BDs/HD-DVDs
Title                                    : German-PGS
Language                                : German
Default                                  : No
Forced                                  : No

Text #4
ID                                      : 12
Format                                  : PGS
Muxing mode                              : zlib
Codec ID                                : S_HDMV/PGS
Codec ID/Info                            : Picture based subtitle format used on BDs/HD-DVDs
Title                                    : French-FORCED-PGS
Language                                : French
Default                                  : No
Forced                                  : No

Text #5
ID                                      : 13
Format                                  : PGS
Muxing mode                              : zlib
Codec ID                                : S_HDMV/PGS
Codec ID/Info                            : Picture based subtitle format used on BDs/HD-DVDs
Title                                    : German-FORCED-PGS
Language                                : German
Default                                  : No
Forced                                  : No

Text #6
ID                                      : 14
Format                                  : PGS
Muxing mode                              : zlib
Codec ID                                : S_HDMV/PGS
Codec ID/Info                            : Picture based subtitle format used on BDs/HD-DVDs
Title                                    : French-PGS
Language                                : French
Default                                  : No
Forced                                  : No

Text #7
ID                                      : 15
Format                                  : PGS
Muxing mode                              : zlib
Codec ID                                : S_HDMV/PGS
Codec ID/Info                            : Picture based subtitle format used on BDs/HD-DVDs
Title                                    : German-PGS
Language                                : German
Default                                  : No
Forced                                  : No

Text #8
ID                                      : 16
Format                                  : PGS
Muxing mode                              : zlib
Codec ID                                : S_HDMV/PGS
Codec ID/Info                            : Picture based subtitle format used on BDs/HD-DVDs
Title                                    : French-PGS
Language                                : French
Default                                  : No
Forced                                  : No

Text #9
ID                                      : 17
Format                                  : PGS
Muxing mode                              : zlib
Codec ID                                : S_HDMV/PGS
Codec ID/Info                            : Picture based subtitle format used on BDs/HD-DVDs
Title                                    : German-PGS
Language                                : German
Default                                  : No
Forced                                  : No

Menu
00:00:00.000                            : en:Chapter 01
00:09:42.415                            : en:Chapter 02
00:26:27.669                            : en:Chapter 03
00:39:22.610                            : en:Chapter 04
00:54:35.146                            : en:Chapter 05
01:08:22.556                            : en:Chapter 06
01:28:22.880                            : en:Chapter 07
01:37:45.860                            : en:Chapter 08
01:46:21.875                            : en:Chapter 09
01:56:24.686                            : en:Chapter 10
02:07:00.696                            : en:Chapter 11
02:21:14.048                            : en:Chapter 12


Share-Links.biz
Passwort: minimal
!!!Zum entpacken der Datei wird KEIN Passwort benötigt!!!


[Action] Terminator 2 - Tag der Abrechnung 1991 EXTENDED REMASTERED 1080p BluRay REMUX AVC DTS-HD MA 5.1 - FG
Download links:


Related News:


Add comments

Your Name:
Your E-Mail:

Enter the words shown in captcha:


Attention!!! Comments moderated and will not appear immediately. Do not post a comment twice.

Related links:

Tag Der Abrechnung (60) Avatar Extended 2009 1080p Bluray X264 Cinefile (65) Multi A Good Day To Die Hard 2013 Extend Cut 1080p Bluray Dts X264 Hdwing (86) Ms A Good Day To Die Hard 2013 Extended Cut 1080p Bluray Dts X264 Sparks (64) Fp 3 Days To Kill 2014 Extended 1080p Bluray Remux Dts Hd Ma 5 1 Publichd (43) Multi A Good Day To Die Hard 2013 Extended Cut 1080p Bluray Dts X264 Sparks (78) Avatar 2009 Extended Collectors Edition 1080p Blu Ray Remux Avc Dts Hd Ma 5 ... (65) Multi Hercules 2014 Extended 2in1 1080p Blu Ray Avc Dts Hd Ma 7 1 Pch (49) Multi A Million Ways To Die In The West 2014 Extended 1080p Bluray Remux Av ... (137) Terror Z Der Tag Danach 3d Uncut 2013 German 1080p Bluray X264 Etm (121) Kap.der.angst.1991.german.dl.1080p.bluray.x264 Details 10 Parts (44) Action Recoil Der Tag Der Abrechnung Ist Gekommen German 2011 Ac3 Bdrip Xvi ... (22) Multi Gladiator 2000 10th Anniversary Edition Remastered 1080p Blu Ray Avc ... (14) Terminator 3 Rebellion Der Maschinen 2003 German Truehd 1080p Bluray Avc Re ... (48) Terminator 2 Extended Special Edition 1991 German Dtshd 1080p Bluray Vc1 Re ... (37) Multi Leviathan 1989 Remastered 1080p Blu Ray Avc Dts Hd Ma 51 Lchd (17) Multi Brick Mansions 2014 Extended 1080p Bluray Remux Avc Dts Hd Ma 51 Hdac ... (12) Kap Der Angst 1991 German Dl 1080p Bluray X264 Details (24) Hudson Hawk Der Meisterdieb 1991 German Dl 1080p Bluray X264 Contribution (20) Multi The Hobbit The Desolation Of Smaug 2013 Extended 1080p Bluray Remux A ... (30)