Wontorra der Fußballtalk 19 November German AC3 720p HDTV x264 - iND

Wontorra der Fußballtalk 19 November German AC3 720p HDTV x264 - iND

Im August ist es endlich so weit: Zwei Jahre nach seinem letzten Auftritt feiert Jörg Wontorra seine Rückkehr ins Fernsehen. Unter dem Titel "Wontorra - der Fußball Talk" wird der Moderator ab dann an jedem Bundesliga - Wochenende sonntags von 10.45 Uhr bis 12.30 Uhr mit seinen Gästen über das aktuelle Fußball-Geschehen diskutieren.

Kurzinfo:
Video: 3 209 Kbps, 25 fps, High@L3.1
Auflösung: 1280x720
Audio: Deutsch AC3 2.0 192 Kbps

Media-Info:

Code:

General
Unique ID                                : 269877265604280270122143325259134631909 (0xCB087880B0CCB34A97CD8A08A0777FE5)
Complete name                            : Wontorra.der.Fußballtalk.19.November.German.AC3.720p.HDTV.x264.mkv
Format                                  : Matroska
Format version                          : Version 4 / Version 2
File size                                : 1.81 GiB
Duration                                : 1h 36mn
Overall bit rate mode                    : Constant
Overall bit rate                        : 2 688 Kbps
Encoded date                            : UTC 2017-11-24 09:53:40
Writing application                      : TMPGEnc Video Mastering Works 6 Version
Writing library                          : TMPGEnc Video Mastering Works 6 Version

Video
ID                                      : 2
Format                                  : AVC
Format/Info                              : Advanced Video Codec
Format profile                          : High@L4.1
Format settings, CABAC                  : Yes
Format settings, ReFrames                : 9 frames
Codec ID                                : V_MPEG4/ISO/AVC
Duration                                : 1h 36mn
Bit rate mode                            : Constant
Bit rate                                : 2 442 Kbps
Nominal bit rate                        : 3 000 Kbps / 3 000 Kbps
Width                                    : 1 280 pixels
Height                                  : 720 pixels
Display aspect ratio                    : 16:9
Frame rate mode                          : Constant
Frame rate                              : 25.000 fps
Standard                                : Component
Color space                              : YUV
Chroma subsampling                      : 4:2:0
Bit depth                                : 8 bits
Scan type                                : Progressive
Bits/(Pixel*Frame)                      : 0.106
Stream size                              : 1.64 GiB (91%)
Writing library                          : x264 core 144
Encoding settings                        : cabac=1 / ref=9 / deblock=1:0:0 / analyse=0x3:0x113 / me=hex / subme=7 / psy=1 / psy_rd=1.00:0.00 / mixed_ref=1 / me_range=16 / chroma_me=1 / trellis=1 / 8x8dct=1 / cqm=1 / deadzone=21,11 / fast_pskip=1 / chroma_qp_offset=-2 / threads=18 / lookahead_threads=3 / sliced_threads=0 / slices=1 / nr=0 / decimate=1 / interlaced=0 / minigop=0 / stitchable=1 / constrained_intra=0 / bframes=3 / b_pyramid=0 / b_adapt=1 / b_bias=0 / direct=1 / weightb=1 / open_gop=1 / weightp=2 / keyint=250 / keyint_min=25 / scenecut=40 / intra_refresh=0 / rc_lookahead=40 / rc=cbr / mbtree=1 / bitrate=3000 / ratetol=1.0 / qcomp=0.60 / qpmin=3 / qpmax=69 / qpstep=4 / vbv_maxrate=3000 / vbv_bufsize=3000 / nal_hrd=cbr / filler=1 / ip_ratio=1.40 / aq=1:1.00
Default                                  : Yes
Forced                                  : No
Color range                              : Limited
Color primaries                          : BT.709
Transfer characteristics                : BT.709
Matrix coefficients                      : BT.709

Audio
ID                                      : 1
Format                                  : AC-3
Format/Info                              : Audio Coding 3
Mode extension                          : CM (complete main)
Format settings, Endianness              : Big
Codec ID                                : A_AC3
Duration                                : 1h 36mn
Bit rate mode                            : Constant
Bit rate                                : 192 Kbps
Channel(s)                              : 2 channels
Channel positions                        : Front: L R
Sampling rate                            : 48.0 KHz
Compression mode                        : Lossy
Stream size                              : 132 MiB (7%)
Default                                  : Yes
Forced                                  : No

Dauer: 96 Min | Format: mkv | Größe: 1,81 GiB

Download Share-online.biz:

Hier klicken

Passwort:

kein Passwort notwendig

Alle Fussballtalks der Saison 2017/2018 hier: Einfach Fußballtalk in die Suche eingeben!!!

------


Wontorra der Fußballtalk 19 November German AC3 720p HDTV x264 - iND
Download links:


Related News:


Add comments

Your Name:
Your E-Mail:

Enter the words shown in captcha:


Attention!!! Comments moderated and will not appear immediately. Do not post a comment twice.