Dans la forêt

Dans la forêt Qualité WEB-DL 1080p | FRENCH Origine : français Réalisation : Gilles Marchand Durée : 1h 43min Acteur(s) : Jérémie Elkaïm,Timothé Vom Dorp,Théo Van de Voorde Genre : Thriller Date de sortie : 15 février 2017 Année de production : 2016 Distributeur : Pyramide Distribution Critiques Spectateurs : 2,6 Critiques Presse : Aucune information ... Bande annonce : [allocine]19567721[/allocine] Cliquez ici pour visualiser la bande annonce Tom et son grand frère Benjamin partent en Suède retrouver leur père pour les vacances d'été. Tom appréhende les retrouvailles avec cet homme étrange et solitaire. Le père, lui, semble convaincu que Tom a le don de voir des choses que les autres ne voient pas. Quand il leur propose d'aller vers le Nord pour passer quelques jours dans une cabane au bord d’un lac, les enfants sont ravis. Mais l'endroit est très isolé, au milieu d'une immense forêt qui exacerbe les peurs de Tom. Et plus les jours passent, moins le père semble envisager leur retour… NFO:  Afficher / Masquer le texte Format : Matroska Format version : Version 4 / Version 2 File size : 3.49 GiB Duration : 1 h 38 min Overall bit rate : 5 044 kb/s Encoded date : UTC 2017-06-20 09:33:45 Writing application : mkvmerge v7.0.0 ('Where We Going') 32bit built on Jun 9 2014 15:08:34 Writing library : libebml v1.3.0 + libmatroska v1.4.1 Video ID : 2 Format : AVC Format/Info : Advanced Video Codec Format profile : High@L4 Format settings, CABAC : Yes Format settings, ReFrames : 5 frames Codec ID : V_MPEG4/ISO/AVC Duration : 1 h 38 min Bit rate : 4 532 kb/s Width : 1 912 pixels Height : 804 pixels Display aspect ratio : 2.40:1 Frame rate mode : Constant Frame rate : 25.000 FPS Color space : YUV Chroma subsampling : 4:2:0 Bit depth : 8 bits Scan type : Progressive Bits/(Pixel*Frame) : 0.118 Stream size : 3.13 GiB (90%) Language : English Default : Yes Forced : No Color range : Limited Color primaries : BT.709 Transfer characteristics : BT.709 Matrix coefficients : BT.709 Audio #1 ID : 1 Format : AAC Format/Info : Advanced Audio Codec Format profile : LC Codec ID : A_AAC Duration : 1 h 38 min Bit rate : 125 kb/s Channel(s) : 2 channels Channel positions : Front: L R Sampling rate : 48.0 kHz Frame rate : 46.875 FPS (1024 spf) Compression mode : Lossy Stream size : 88.6 MiB (2%) Title : AAC Language : French Default : Yes Forced : No Audio #2 ID : 3 Format : AC-3 Format/Info : Audio Coding 3 Format settings, Endianness : Big Codec ID : A_AC3 Duration : 1 h 38 min Bit rate mode : Constant Bit rate : 384 kb/s Channel(s) : 6 channels Channel positions : Front: L C R, Side: L R, LFE Sampling rate : 48.0 kHz Frame rate : 31.250 FPS (1536 spf) Bit depth : 16 bits Compression mode : Lossy Stream size : 272 MiB (8%) Title : AC3 Language : French Service kind : Complete Main Default : No Forced : No Text ID : 4 Format : UTF-8 Codec ID : S_TEXT/UTF8 Codec ID/Info : UTF-8 Plain Text Duration : 59 min 25 s Bit rate : 3 b/s Count of elements : 55 Stream size : 1.49 KiB (0%) Title : FR Forcé Default : Yes Forced : Yes Menu 00:00:00.000 : en:Chapitre 01 00:09:00.000 : en:Chapitre 02 00:18:00.000 : en:Chapitre 03 00:27:00.000 : en:Chapitre 04 00:36:00.000 : en:Chapitre 05 00:45:00.000 : en:Chapitre 06 00:54:00.000 : en:Chapitre 07 01:03:00.000 : en:Chapitre 08 01:12:00.000 : en:Chapitre 09 01:21:00.000 : en:Chapitre 10


Dans la forêt
Download links:


Related News:


Add comments

Your Name:
Your E-Mail:

Enter the words shown in captcha:


Attention!!! Comments moderated and will not appear immediately. Do not post a comment twice.