[Romanze] The Wedding March 2 Resorting To Love 2017 Hallmark HDTV x264-Poke

The Wedding March 2 Resorting To Love 2017 Hallmark HDTV x264-Poke


NFO

General
Complete name : D:\The.W.M.2.Resorting.To.Love.2017.Hallmark.HDTV. x264-Poke.mp4
Format : MPEG-4
Format profile : Base Media / Version 2
Codec ID : mp42 (isom/iso2/avc1/mp41)
File size : 1.11 GiB
Duration : 1 h 23 min
Overall bit rate mode : Variable
Overall bit rate : 1 890 kb/s
Encoded date : UTC 2017-06-18 04:14:18
Tagged date : UTC 2017-06-18 04:14:18
Writing application : HandBrake 1.0.7 2017040900

Video
ID : 1
Format : AVC
Format/Info : Advanced Video Codec
Format profile : Main@L4
Format settings, CABAC : Yes
Format settings, ReFrames : 4 frames
Codec ID : avc1
Codec ID/Info : Advanced Video Coding
Duration : 1 h 23 min
Bit rate : 1 500 kb/s
Width : 720 pixels
Height : 404 pixels
Display aspect ratio : 16:9
Original display aspect ratio : 16:9
Frame rate mode : Variable
Frame rate : 23.976 (24000/1001) FPS
Minimum frame rate : 23.974 FPS
Maximum frame rate : 23.981 FPS
Color space : YUV
Chroma subsampling : 4:2:0
Bit depth : 8 bits
Scan type : Progressive
Bits/(Pixel*Frame) : 0.215
Stream size : 899 MiB (79%)
Writing library : x264 core 148 r2708 86b7198
Encoding settings : cabac=1 / ref=2 / deblock=1:0:0 / analyse=0x1:0x111 / me=hex / subme=4 / psy=1 / psy_rd=1.00:0.00 / mixed_ref=0 / me_range=16 / chroma_me=1 / trellis=1 / 8x8dct=0 / cqm=0 / deadzone=21,11 / fast_pskip=1 / chroma_qp_offset=0 / threads=6 / lookahead_threads=1 / sliced_threads=0 / nr=0 / decimate=1 / interlaced=0 / bluray_compat=0 / constrained_intra=0 / bframes=3 / b_pyramid=2 / b_adapt=1 / b_bias=0 / direct=1 / weightb=1 / open_gop=0 / weightp=1 / keyint=240 / keyint_min=24 / scenecut=40 / intra_refresh=0 / rc_lookahead=20 / rc=abr / mbtree=1 / bitrate=1500 / ratetol=1.0 / qcomp=0.60 / qpmin=0 / qpmax=69 / qpstep=4 / vbv_maxrate=20000 / vbv_bufsize=25000 / nal_hrd=none / filler=0 / ip_ratio=1.40 / aq=1:1.00
Encoded date : UTC 2017-06-18 04:14:18
Tagged date : UTC 2017-06-18 04:14:18
Color range : Limited
Color primaries : BT.709
Transfer characteristics : BT.709
Matrix coefficients : BT.709

Audio
ID : 2
Format : AAC
Format/Info : Advanced Audio Codec
Format profile : LC
Codec ID : 40
Duration : 1 h 23 min
Bit rate mode : Variable
Bit rate : 384 kb/s
Channel(s) : 2 channels
Channel(s)_Original : 6 channels
Channel positions : Front: L C R, Side: L R, LFE
Sampling rate : 48.0 kHz
Frame rate : 46.875 FPS (1024 spf)
Compression mode : Lossy
Stream size : 230 MiB (20%)
Title : Surround / Surround
Default : Yes
Alternate group : 1
Encoded date : UTC 2017-06-18 04:14:18
Tagged date : UTC 2017-06-18 04:14:18

Beschreibung

Former sweethearts Olivia and Mick are now running a wedding resort after unexpectedly reuniting. As they work together in their new venture, they soon realize that although their business relationship is flawed, there may be romance on the horizon.

Genre: Drama
IMDB Rating: -/10 from -users
Directed by: N/A
Starring: Jack Wagner, Josie Bissett

Release Name: The.Wedding.March.2.Resorting.To.Love.2017.Hallmar k.HDTV.x264-Poke
Size: 1.10 GiB
Video: MP4 | 720×404 | 1 500 kbps
Audio: English | AAC | 384 kbps
Runtime: 1 h 23 min
Subtitles: N/A

Kein PW

Download

UL.to


[Romanze] The Wedding March 2 Resorting To Love 2017 Hallmark HDTV x264-Poke
Download links:


Related News:


Add comments

Your Name:
Your E-Mail:

Enter the words shown in captcha:


Attention!!! Comments moderated and will not appear immediately. Do not post a comment twice.