The Putin Interviews Oliver Stone 2017 German Subbed AC3 1080p HDTV x264 - iND

The Putin Interviews Oliver Stone 2017 German Subbed AC3 1080p HDTV x264 - iND

Zur Vorbereitung seines Films „Snowden“ reiste Regisseur Oliver Stone mehrmals nach Russland, um den dort im Exil lebenden Whistleblower zu interviewen. Im Zuge dieser Reisen kam Stone mit Putin in Kontakt. Mehr als zwei Jahre lang hatte Regisseur Oliver Stone die Gelegenheit Wladimir Putin persönlich zu Gesprächen zu treffen. Noch nie hat der russische Präsident einem Journalisten aus dem Westen in dieser Ausführlichkeit für Interviews bereitgestanden. Der russische Präsident Vladimir Putin wird im Kreml vom unbequemen, politischen US-Regisseur Oliver Stone („Platoon“) zu den aktuellen Verwicklungen zwischen ihren beiden Ländern befragt. Und Stone wäre nicht Stone, wenn Fragen wie „Warum hat Russland den US-Wahlkampf gehackt?“ nicht zu seinem Repertoire gehören würden. Ob Trump, der Krieg in Syrien oder der Ukraine-Konflikt - in den vier einstündigen Folgen des Putin-Interviews ist kein Thema tabu. Putin hält dem Westen den Spiegel vor und stellt ausführlich die Konflikte mit dem Westen aus russischer Sicht dar. Dies in einer größenteils so überzeugender Art, dass die inzwischen überwiegende westliche gleichgeschaltete und gesteuerte Medienwelt, die sich gemeinsam dieser Tage in ihrer Putinhetze und Kriegstreiberei geradezu überschlägt, wie gebissene Hunde reagiert. Sicher verkauft sich Putin in den Interviews besser als er tatsächlich sein dürfte. Beim kritischen Betrachter dieses spannende Stück Zeitgeschichteder dürfte jedoch das ungute Gefühl aufkommen, dass vornehm ausgedrückt die größeren Spitzbuben im Westen sitzen. Es wird deutlich bevor das Imperium der westlichen Welt angeführt von der USA an seinen eigenen hausgemachten Problemen immer schneller erstickt und untergeht, scheint es nochmal kräftig um sich schlagen zu wollen. Zu oft hat Putin dem Westen völlig berechtigt in die Suppe seiner unermeßlichen Raffgier gespuckt. Außerdem braucht das Imperium USA und seine hörigen und abhängigen Vasallen, dessen eigener Weg von Imperialismus, Ausbeutung, Sklaverei und Krieg gepflastert ist, mal wieder einen gemeinsamen Feind, um wenigstens die eigenen Reihen überhaupt noch geschlossen halten zu können.

4 Teile:
01. Part I
02. Part II
03. Part III
04. Part IV

Kurzinfo:
Video: ca. 6000 kbps, 25.000 FPS, High@L4.1, CFR 20
Auflösung: 1920×1080, 1080p, 16:9
Audio 1: Englisch – Russisch AC3 5.1 384 kbps
Audio 2: Englisch – Russisch AC3 2.0 448 kbps
Untertitel: Deutsch
Dauer: Je Folge ca. 60 Min
Größe: Je Folge ca. 2,3 GB

ACHTUNG:
24 Sekunden in Teil 3 sind wegen Tonstörungen mit englischer Fassung ersetzt worden

Media-Info:

Code:

General
Unique ID                                : 116283568500234889139124144107127833760 (0x577B6691C0343FCF31CE134CA53C04A0)
Complete name                            : The Putin Interviews Part I.mkv
Format                                  : Matroska
Format version                          : Version 4 / Version 2
File size                                : 2.14 GiB
Duration                                : 55mn 58s
Overall bit rate                        : 5 473 Kbps
Encoded date                            : UTC 2017-06-19T03:19:04Z
Writing application                      : HandBrake 1.0.3 2017022500
Writing library                          : Lavf57.7.2

Video
ID                                      : 1
Format                                  : AVC
Format/Info                              : Advanced Video Codec
Format profile                          : High@L4.1
Format settings, CABAC                  : Yes
Format settings, ReFrames                : 4 frames
Codec ID                                : V_MPEG4/ISO/AVC
Duration                                : 55mn 58s
Bit rate                                : 4 532 Kbps
Width                                    : 1 920 pixels
Height                                  : 1 078 pixels
Display aspect ratio                    : 16:9
Frame rate mode                          : Constant
Frame rate                              : 25.000 fps
Color space                              : YUV
Chroma subsampling                      : 4:2:0
Bit depth                                : 8 bits
Scan type                                : Progressive
Bits/(Pixel*Frame)                      : 0.088
Stream size                              : 1.77 GiB (83%)
Writing library                          : x264 core 148 r2708 86b7198
Encoding settings                        : cabac=1 / ref=3 / deblock=1:0:0 / analyse=0x3:0x113 / me=hex / subme=7 / psy=1 / psy_rd=1.00:0.00 / mixed_ref=1 / me_range=16 / chroma_me=1 / trellis=1 / 8x8dct=1 / cqm=0 / deadzone=21,11 / fast_pskip=1 / chroma_qp_offset=-2 / threads=18 / lookahead_threads=3 / sliced_threads=0 / nr=0 / decimate=1 / interlaced=0 / bluray_compat=0 / constrained_intra=0 / bframes=3 / b_pyramid=2 / b_adapt=1 / b_bias=0 / direct=1 / weightb=1 / open_gop=0 / weightp=2 / keyint=250 / keyint_min=25 / scenecut=40 / intra_refresh=0 / rc_lookahead=40 / rc=crf / mbtree=1 / crf=20.0 / qcomp=0.60 / qpmin=0 / qpmax=69 / qpstep=4 / vbv_maxrate=62500 / vbv_bufsize=78125 / crf_max=0.0 / nal_hrd=none / filler=0 / ip_ratio=1.40 / aq=1:1.00
Default                                  : Yes
Forced                                  : No
Color range                              : Limited
Color primaries                          : BT.709
Transfer characteristics                : BT.709
Matrix coefficients                      : BT.709

Audio #1
ID                                      : 2
Format                                  : AC-3
Format/Info                              : Audio Coding 3
Mode extension                          : CM (complete main)
Format settings, Endianness              : Big
Codec ID                                : A_AC3
Duration                                : 55mn 58s
Bit rate mode                            : Constant
Bit rate                                : 384 Kbps
Channel(s)                              : 6 channels
Channel positions                        : Front: L C R, Side: L R, LFE
Sampling rate                            : 48.0 KHz
Compression mode                        : Lossy
Stream size                              : 154 MiB (7%)
Title                                    : Surround
Default                                  : Yes
Forced                                  : No

Audio #2
ID                                      : 3
Format                                  : AC-3
Format/Info                              : Audio Coding 3
Mode extension                          : CM (complete main)
Format settings, Endianness              : Big
Codec ID                                : A_AC3
Duration                                : 55mn 58s
Bit rate mode                            : Constant
Bit rate                                : 448 Kbps
Channel(s)                              : 2 channels
Channel positions                        : Front: L R
Sampling rate                            : 48.0 KHz
Compression mode                        : Lossy
Stream size                              : 179 MiB (8%)
Title                                    : Stereo
Default                                  : No
Forced                                  : No

Dauer: je Folge 60 Min | Format: mkv | Größe: je Folge 1,2 GB

Download Share-online.biz:

Hier klicken

# Mirror 1 Uploaded.net:

Hier klicken

Passwort:

movie-blog.org


The Putin Interviews Oliver Stone 2017 German Subbed AC3 1080p HDTV x264 - iND
Download links:


Related News:


Add comments

Your Name:
Your E-Mail:

Enter the words shown in captcha:


Attention!!! Comments moderated and will not appear immediately. Do not post a comment twice.