Der Hundertjährige Krieg 2013 German AC3 720p HDTV x264 - iND

Der Hundertjährige Krieg 2013 German AC3 720p HDTV x264 - iND

Der Hundertjährige Krieg zwischen England und Frankreich begründete eine Erbfeindschaft, deren Spuren noch heute sichtbar sind. Dieser Hundertjährige Krieg, von Historikern aus Gründen der Zweckmäßigkeit von 1337 bis 1453 datiert, obwohl die Streitigkeiten bis ins 12. Jahrhundert zurückreichten, veränderte die Landkarte Westeuropas. Die Engländer verloren nach vielen Erfolgen und Rückschlägen ihre Neigung, sich auf dem Kontinent festzusetzen, und widmeten sich der Entfaltung einer eigenen politischen Identität, in der die Krone und die Nation symbolisch miteinander verschmolzen. Die Franzosen, die mehrmals am Rande des Abgrunds standen, legten die Grundlage für die Bildung eines einheitlichen, ungeteilten Königreichs, das fortan Sicherheit in der Ausdehnung bis zu seinen „natürlichen“ geografischen Grenzen suchte. Bei aller gebotenen Vorsicht mit historischen Vergleichen könnte der Hundertjährige Krieg so wie ein früher Vorbote moderner Kriege erscheinen – ein existenzieller Kampf auf Leben und Tod zwischen Nationalstaaten, die um Vorherrschaft und Selbstbehauptung ringen.

3 Teile:
01. Streit um Frankreichs Thron (1337–1360)
02. England in Bedrängnis (1360–1415)
03. England u. Frankreich Geburt zweier Nationen (1415–1453)

Kurzinfo:
Source: HDTV, GB 2013, BBC The Hundred Years‘ War
Video: ca 6500 kbps, 50.000 FPS, High@L4.1, CFR 20
Auflösung: 1280×720, 720p, 16:9
Audio: Deutsch AC3 2.0 448 kbps

Media-Info:

Code:

General
Unique ID                                : 264852760826820175224717064247534991719 (0xC740C94A7F81A522A138B07A3654B967)
Complete name                            : 01 Der Hundertjährige Krieg - Streit um Frankreichs Thron.mkv
Format                                  : Matroska
Format version                          : Version 4 / Version 2
File size                                : 2.00 GiB
Duration                                : 44mn 23s
Overall bit rate                        : 6 452 Kbps
Encoded date                            : UTC 2017-06-15T22:03:21Z
Writing application                      : HandBrake 1.0.3 2017022500
Writing library                          : Lavf57.7.2

Video
ID                                      : 1
Format                                  : AVC
Format/Info                              : Advanced Video Codec
Format profile                          : High@L4.1
Format settings, CABAC                  : Yes
Format settings, ReFrames                : 4 frames
Codec ID                                : V_MPEG4/ISO/AVC
Duration                                : 44mn 23s
Bit rate                                : 6 000 Kbps
Width                                    : 1 280 pixels
Height                                  : 716 pixels
Display aspect ratio                    : 16:9
Frame rate mode                          : Constant
Frame rate                              : 50.000 fps
Color space                              : YUV
Chroma subsampling                      : 4:2:0
Bit depth                                : 8 bits
Scan type                                : Progressive
Bits/(Pixel*Frame)                      : 0.131
Stream size                              : 1.82 GiB (91%)
Writing library                          : x264 core 148 r2708 86b7198
Encoding settings                        : cabac=1 / ref=3 / deblock=1:0:0 / analyse=0x3:0x113 / me=hex / subme=7 / psy=1 / psy_rd=1.00:0.00 / mixed_ref=1 / me_range=16 / chroma_me=1 / trellis=1 / 8x8dct=1 / cqm=0 / deadzone=21,11 / fast_pskip=1 / chroma_qp_offset=-2 / threads=18 / lookahead_threads=3 / sliced_threads=0 / nr=0 / decimate=1 / interlaced=0 / bluray_compat=0 / constrained_intra=0 / bframes=3 / b_pyramid=2 / b_adapt=1 / b_bias=0 / direct=1 / weightb=1 / open_gop=0 / weightp=2 / keyint=500 / keyint_min=50 / scenecut=40 / intra_refresh=0 / rc_lookahead=40 / rc=2pass / mbtree=1 / bitrate=6000 / ratetol=1.0 / qcomp=0.60 / qpmin=0 / qpmax=69 / qpstep=4 / cplxblur=20.0 / qblur=0.5 / vbv_maxrate=62500 / vbv_bufsize=78125 / nal_hrd=none / filler=0 / ip_ratio=1.40 / aq=1:1.00
Default                                  : Yes
Forced                                  : No
Color range                              : Limited
Color primaries                          : BT.709
Transfer characteristics                : BT.709
Matrix coefficients                      : BT.709

Audio
ID                                      : 2
Format                                  : AC-3
Format/Info                              : Audio Coding 3
Mode extension                          : CM (complete main)
Format settings, Endianness              : Big
Codec ID                                : A_AC3
Duration                                : 44mn 23s
Bit rate mode                            : Constant
Bit rate                                : 448 Kbps
Channel(s)                              : 2 channels
Channel positions                        : Front: L R
Sampling rate                            : 48.0 KHz
Compression mode                        : Lossy
Stream size                              : 142 MiB (7%)
Title                                    : Stereo
Default                                  : Yes
Forced                                  : No

Dauer: 135 Min | Format: mkv | Größe: 6,18 GB

Download Share-online.biz:

Hier klicken

# Mirror 1 Uploaded.net:

Hier klicken

Passwort:

movie-blog.org


Der Hundertjährige Krieg 2013 German AC3 720p HDTV x264 - iND
Download links:


Related News:


Add comments

Your Name:
Your E-Mail:

Enter the words shown in captcha:


Attention!!! Comments moderated and will not appear immediately. Do not post a comment twice.