[Action] Baywatch 2017 German AC3MD HDCAM XViD - XDD

Baywatch.2017.German.AC3MD.HDCAM.XViD-XDD

Er hat seinen Strand fest im Griff: Mitch Buchannon ist der lässigste Rettungsschwimmer von Miami Beach mit dem heißesten Team an seiner Seite. Nur Neuzugang Matt Brody stellt die Autorität des charismatischen Anführers in Frage und stiftet Unruhe. Doch als das Team in einen mysteriösen Kriminalfall hineingezogen wird und die Zukunft der geliebten Bucht auf dem Spiel steht, müssen die beiden Lifeguards sich wohl oder übel zusammenraufen…

Title: Baywatch
Genre: Action
Sprache: Deutsch
Video Stream: HDCAM
Video Codec: XViD / AVI
Audio Stream: MiC
Laufzeit: 112 Minuten
Größe: 1510 MB
Parts: 2

NFO

Code:

Video: MPEG-4 Visual (XviD), 720x240, 29.970 FPS, 1729 kb/s
Audio: AC-3, 44.1 kHz, 2 channels, 192 kb/s

MEDIAINFO

Code:

General
Complete name                            : xddbaywcammdxv.avi
Format                                  : AVI
Format/Info                              : Audio Video Interleave
File size                                : 1.51 GiB
Duration                                : 01:52:11
Overall bit rate                        : 1 933 kb/s
Writing application                      : VirtualDubMod 1.5.10.2 (build 2540/release)
Writing library                          : VirtualDubMod build 2540/release
FileExtension_Invalid                    : avi

Video
ID                                      : 0
Format                                  : MPEG-4 Visual
Format profile                          : Advanced Simple@L5
Format settings, BVOP                    : 1
Format settings, QPel                    : No
Format settings, GMC                    : No warppoints
Format settings, Matrix                  : Default (MPEG)
Codec ID                                : XVID
Codec ID/Hint                            : XviD
Duration                                : 01:52:11
Bit rate                                : 1 729 kb/s
Width                                    : 720 pixels
Height                                  : 240 pixels
Display aspect ratio                    : 3.000
Frame rate                              : 29.970 (30000/1001) FPS
Color space                              : YUV
Chroma subsampling                      : 4:2:0
Bit depth                                : 8 bits
Scan type                                : Progressive
Compression mode                        : Lossy
Bits/(Pixel*Frame)                      : 0.334
Stream size                              : 1.36 GiB (89%)
Writing library                          : XviD 73

Audio
ID                                      : 1
Format                                  : AC-3
Format/Info                              : Audio Coding 3
Format settings, Endianness              : Big
Codec ID                                : 2000
Duration                                : 01:52:11
Bit rate mode                            : Constant
Bit rate                                : 192 kb/s
Channel(s)                              : 2 channels
Channel positions                        : Front: L R
Sampling rate                            : 44.1 kHz
Frame rate                              : 28.711 FPS (1536 spf)
Bit depth                                : 16 bits
Compression mode                        : Lossy
Stream size                              : 154 MiB (10%)
Alignment                                : Split accross interleaves
Interleave, duration                    : 33  ms (1.00 video frame)
Interleave, preload duration            : 500  ms
Service kind                            : Complete Main

SAMPLE

Uploaded.net

Share-online.biz


[Action] Baywatch 2017 German AC3MD HDCAM XViD - XDD
Download links:


Related News:


Add comments

Your Name:
Your E-Mail:

Enter the words shown in captcha:


Attention!!! Comments moderated and will not appear immediately. Do not post a comment twice.