[Pop] Twelve Inch Eighties - You Spin Me Round (3CD) (2016)

Various Artists – Twelve Inch Eighties (You Spin Me Round)

Label/Cat#: Crimson – TWIN80002, Crimson – TWIN8002
Country: UK
Year: 25 Mar 2016
Genre: Electronic, Rock, Funk, Soul, Blues, Pop
Style: Synth-pop, House, Hi NRG, Euro-Disco, Soul, Rhythm & Blues, Funk, Disco, New Wave, Pop Rock, Vocal
Format: 3 × CD, Compilation, unmixed (flac/tracks / cue + log + scans)
Size: 1,26 GB

Code:

Disc 1 (01:08:14)
1. Dead Or Alive – You Spin Me Round (Like A Record) (12" Murder Mix) (08:03)
2. Eighth Wonder – I'm Not Scared (Disco Mix) (08:01)
3. Liza Minnelli – Losing My Mind (Extended Mix) (07:01)
4. Rick Astley – Never Gonna Give You Up (12" Cake Mix) (05:48)
5. Martika – I Feel The Earth Move (Club Mix) (06:38)
6. Alexander O'Neal – Criticize (12" Remix) (07:02)
7. S.O.S. Band – The Finest (12" Extended) (06:06)
8. Donna Summer – Dinner With Gershwin (12" Extended Version) (07:47)
9. Gloria Estefan & Miami Sound Machine – 1, 2, 3, (Extended Version) (04:34)
10. Five Star – Can't Wait Another Minute (12" Mix) (07:14)

Disc 2 (58:12)
1. Men Without Hats – The Safety Dance (12" Version) (05:21)
2. Japan – Quiet Life (12") (04:52)
3. Haircut 100 – Love Plus One (12" Version) (05:39)
4. Thompson Twins – Doctor! Doctor! (Long Version) (07:54)
5. Nena – 99 Red Balloons (12" Club Mix) (04:43)
6. Altered Images – Don't Talk To Me About Love (Extended) (07:00)
7. Cyndi Lauper – Girls Just Want To Have Fun (Extended Version) (06:04)
8. Matthew Wilder – Break My Stride (Remix / Club Version) (05:10)
9. Mental As Anything – Live It Up (12" Remix) (06:06)
10. Men At Work – Down Under (Extended) (05:23)

Disc 3 (58:15)
1. Belinda Carlisle – Heaven Is A Place On Earth (Heavenly Version) (05:59)
2. The Bangles – Manic Monday (Extended Remix) (04:39)
3. Bonnie Tyler – Holding Out For A Hero (Club Mix) (06:22)
4. Daryl Hall & John Oates – I Can't Go For That (No Can Do) (Extended Club Mix) (06:05)
5. Rick Springfield – Celebrate Youth (Dance Mix) (05:23)
6. Paul Young – Come Back And Stay (12" Mix) (07:32)
7. Nick Heyward – Take That Situation (Rhythm Mix) (03:53)
8. Owen Paul – My Favourite Waste Of Time (12" Jumbo Remix) (07:46)
9. Bros. – When Will I Be Famous? (12" Infamous Mix) (05:44)
10. Bucks Fizz – My Camera Never Lies (12") (04:52)

Total length: 03:04:41

More information: https://www.discogs.com/Various-Twel...elease/8304299

Log

Disc 1

Code:

Exact Audio Copy V1.0 beta 4 from 7. December 2014

EAC extraction logfile from 23. October 2016, 20:10

Various Artists / 12 Inch Eighties: You Spin Me Round [CD1]

Used drive  : MATSHITADVD-RAM UJ8D2Q  Adapter: 1  ID: 0

Read mode              : Secure
Utilize accurate stream : Yes
Defeat audio cache      : Yes
Make use of C2 pointers : No

Read offset correction                      : 103
Overread into Lead-In and Lead-Out          : No
Fill up missing offset samples with silence : Yes
Delete leading and trailing silent blocks  : No
Null samples used in CRC calculations      : Yes
Used interface                              : Native Win32 interface for Win NT & 2000
Gap handling                                : Appended to previous track

Used output format              : User Defined Encoder
Selected bitrate                : 896 kBit/s
Quality                        : High
Add ID3 tag                    : No
Command line compressor        : C:\Program Files (x86)\Exact Audio Copy\Flac\flac.exe
Additional command line options : -8 -V -T "ARTIST=%artist%" -T "TITLE=%title%" -T "ALBUM=%albumtitle%" -T "DATE=%year%" -T "TRACKNUMBER=%tracknr%" -T "TOTALTRACKS=%numtracks%" -T "GENRE=%genre%" -T "ALBUMARTIST=%albumartist%" -T "ALBUM ARTIST=%albumartist%" -T "COMMENT=EAC Secure Mode, Test & Copy, AccurateRip, FLAC -8" %source%

TOC of the extracted CD

    Track |  Start  |  Length  | Start sector | End sector
    ---------------------------------------------------------
        1  |  0:00.00 |  8:02.63 |        0    |    36212 
        2  |  8:02.63 |  8:01.05 |    36213    |    72292 
        3  | 16:03.68 |  7:00.40 |    72293    |  103832 
        4  | 23:04.33 |  5:48.31 |    103833    |  129963 
        5  | 28:52.64 |  6:38.12 |    129964    |  159825 
        6  | 35:31.01 |  7:02.14 |    159826    |  191489 
        7  | 42:33.15 |  6:06.05 |    191490    |  218944 
        8  | 48:39.20 |  7:47.30 |    218945    |  253999 
        9  | 56:26.50 |  4:34.33 |    254000    |  274582 
      10  | 61:01.08 |  7:14.16 |    274583    |  307148 

Track  1

    Filename C:\Users\paul\AppData\Local\VirtualStore\Program Files (x86)\Exact Audio Copy\Flac\01 - Dead Or Alive - You Spin Me Round (12'' Murder Mix).wav

    Pre-gap length  0:00:02.00

    Peak level 96.6 %
    Extraction speed 2.8 X
    Track quality 100.0 %
    Test CRC 5F998D9E
    Copy CRC 5F998D9E
    Accurately ripped (confidence 13)  [840F5438]  (AR v2)
    Copy OK

Track  2

    Filename C:\Users\paul\AppData\Local\VirtualStore\Program Files (x86)\Exact Audio Copy\Flac\02 - Eighth Wonder - I'm Not Scared (Disco Mix).wav

    Pre-gap length  0:00:02.00

    Peak level 96.6 %
    Extraction speed 2.8 X
    Track quality 99.9 %
    Test CRC 5A224259
    Copy CRC 5A224259
    Accurately ripped (confidence 13)  [09308BB6]  (AR v2)
    Copy OK

Track  3

    Filename C:\Users\paul\AppData\Local\VirtualStore\Program Files (x86)\Exact Audio Copy\Flac\03 - Liza Minnelli - Losing My Mind (Extended Mix).wav

    Pre-gap length  0:00:02.00

    Peak level 96.6 %
    Extraction speed 3.7 X
    Track quality 100.0 %
    Test CRC 21A62351
    Copy CRC 21A62351
    Accurately ripped (confidence 13)  [715FC42C]  (AR v2)
    Copy OK

Track  4

    Filename C:\Users\paul\AppData\Local\VirtualStore\Program Files (x86)\Exact Audio Copy\Flac\04 - Rick Astley - Never Gonna Give You Up (12'' Cake Mix).wav

    Pre-gap length  0:00:02.00

    Peak level 96.6 %
    Extraction speed 4.0 X
    Track quality 100.0 %
    Test CRC E8BFC971
    Copy CRC E8BFC971
    Accurately ripped (confidence 13)  [6132CCFF]  (AR v2)
    Copy OK

Track  5

    Filename C:\Users\paul\AppData\Local\VirtualStore\Program Files (x86)\Exact Audio Copy\Flac\05 - Martika - I Feel The Earth Move (Club Mix).wav

    Pre-gap length  0:00:02.00

    Peak level 96.6 %
    Extraction speed 4.3 X
    Track quality 100.0 %
    Test CRC 30ED8E10
    Copy CRC 30ED8E10
    Accurately ripped (confidence 13)  [E320952E]  (AR v2)
    Copy OK

Track  6

    Filename C:\Users\paul\AppData\Local\VirtualStore\Program Files (x86)\Exact Audio Copy\Flac\06 - Alexander O'neal - Criticize (12'' Remix).wav

    Pre-gap length  0:00:02.00

    Peak level 96.6 %
    Extraction speed 4.6 X
    Track quality 100.0 %
    Test CRC 12E95790
    Copy CRC 12E95790
    Accurately ripped (confidence 13)  [874F45B6]  (AR v2)
    Copy OK

Track  7

    Filename C:\Users\paul\AppData\Local\VirtualStore\Program Files (x86)\Exact Audio Copy\Flac\07 - S.O.S. Band - The Finest (12'' Extended).wav

    Pre-gap length  0:00:02.00

    Peak level 96.6 %
    Extraction speed 4.8 X
    Track quality 100.0 %
    Test CRC 265CF85A
    Copy CRC 265CF85A
    Accurately ripped (confidence 13)  [5C7FE6C8]  (AR v2)
    Copy OK

Track  8

    Filename C:\Users\paul\AppData\Local\VirtualStore\Program Files (x86)\Exact Audio Copy\Flac\08 - Donna Summer - Dinner With Gershwin (12'' Extended Version).wav

    Pre-gap length  0:00:02.00

    Peak level 96.6 %
    Extraction speed 5.2 X
    Track quality 100.0 %
    Test CRC A08F6E2B
    Copy CRC A08F6E2B
    Accurately ripped (confidence 13)  [3CD88363]  (AR v2)
    Copy OK

Track  9

    Filename C:\Users\paul\AppData\Local\VirtualStore\Program Files (x86)\Exact Audio Copy\Flac\09 - Gloria Estefan & Miami Sound Machine - 123 (Extended Version).wav

    Pre-gap length  0:00:02.00

    Peak level 96.6 %
    Extraction speed 5.1 X
    Track quality 100.0 %
    Test CRC B1C90404
    Copy CRC B1C90404
    Accurately ripped (confidence 13)  [18C2CB18]  (AR v2)
    Copy OK

Track 10

    Filename C:\Users\paul\AppData\Local\VirtualStore\Program Files (x86)\Exact Audio Copy\Flac\10 - Five Star - Can't Wait Another Minute (12'' Mix).wav

    Pre-gap length  0:00:02.00

    Peak level 83.2 %
    Extraction speed 5.6 X
    Track quality 100.0 %
    Test CRC 67146659
    Copy CRC 67146659
    Accurately ripped (confidence 12)  [FF9571E8]  (AR v2)
    Copy OK

All tracks accurately ripped

No errors occurred

End of status report

---- CUETools DB Plugin V2.1.4

[CTDB TOCID: xHzZ5H2UXF05UnU8YWmlK2MNs88-] found
Submit result: xHzZ5H2UXF05UnU8YWmlK2MNs88- has been confirmed
Track | CTDB Status
  1  | (29/30) Accurately ripped
  2  | (29/30) Accurately ripped
  3  | (30/30) Accurately ripped
  4  | (29/30) Accurately ripped
  5  | (29/30) Accurately ripped
  6  | (29/30) Accurately ripped
  7  | (30/30) Accurately ripped
  8  | (29/30) Accurately ripped
  9  | (29/30) Accurately ripped
 10  | (29/30) Accurately ripped

==== Log checksum 025FA0DBB28288611FCDCAEEEB8D947708C992948C9F6340778DF589D086AEC9 ====

Disc 2

Code:

Exact Audio Copy V1.0 beta 4 from 7. December 2014

EAC extraction logfile from 24. October 2016, 19:06

Various Artists / Twelve Inch Eighties: You Spin Me Round [CD2]

Used drive  : MATSHITADVD-RAM UJ8D2Q  Adapter: 1  ID: 0

Read mode              : Secure
Utilize accurate stream : Yes
Defeat audio cache      : Yes
Make use of C2 pointers : No

Read offset correction                      : 103
Overread into Lead-In and Lead-Out          : No
Fill up missing offset samples with silence : Yes
Delete leading and trailing silent blocks  : No
Null samples used in CRC calculations      : Yes
Used interface                              : Native Win32 interface for Win NT & 2000
Gap handling                                : Appended to previous track

Used output format              : User Defined Encoder
Selected bitrate                : 896 kBit/s
Quality                        : High
Add ID3 tag                    : No
Command line compressor        : C:\Program Files (x86)\Exact Audio Copy\Flac\flac.exe
Additional command line options : -8 -V -T "ARTIST=%artist%" -T "TITLE=%title%" -T "ALBUM=%albumtitle%" -T "DATE=%year%" -T "TRACKNUMBER=%tracknr%" -T "TOTALTRACKS=%numtracks%" -T "GENRE=%genre%" -T "ALBUMARTIST=%albumartist%" -T "ALBUM ARTIST=%albumartist%" -T "COMMENT=EAC Secure Mode, Test & Copy, AccurateRip, FLAC -8" %source%

TOC of the extracted CD

    Track |  Start  |  Length  | Start sector | End sector
    ---------------------------------------------------------
        1  |  0:00.00 |  5:20.40 |        0    |    24039 
        2  |  5:20.40 |  4:52.21 |    24040    |    45960 
        3  | 10:12.61 |  5:38.56 |    45961    |    71366 
        4  | 15:51.42 |  7:54.27 |    71367    |  106943 
        5  | 23:45.69 |  4:42.64 |    106944    |  128157 
        6  | 28:28.58 |  7:00.00 |    128158    |  159657 
        7  | 35:28.58 |  6:04.10 |    159658    |  186967 
        8  | 41:32.68 |  5:09.60 |    186968    |  210202 
        9  | 46:42.53 |  6:05.74 |    210203    |  237651 
      10  | 52:48.52 |  5:22.72 |    237652    |  261873 

Track  1

    Filename C:\Users\paul\AppData\Local\VirtualStore\Program Files (x86)\Exact Audio Copy\Flac\01 - Men Without Hats - Safety Dance (12'' Version).wav

    Pre-gap length  0:00:02.00

    Peak level 98.6 %
    Extraction speed 2.5 X
    Track quality 100.0 %
    Test CRC E57DE1C9
    Copy CRC E57DE1C9
    Accurately ripped (confidence 13)  [6E95946A]  (AR v2)
    Copy OK

Track  2

    Filename C:\Users\paul\AppData\Local\VirtualStore\Program Files (x86)\Exact Audio Copy\Flac\02 - Japan - Quiet Life (12'' Version).wav

    Pre-gap length  0:00:02.00

    Peak level 100.0 %
    Extraction speed 2.8 X
    Track quality 100.0 %
    Test CRC 75A8A10C
    Copy CRC 75A8A10C
    Accurately ripped (confidence 13)  [DE5DB561]  (AR v2)
    Copy OK

Track  3

    Filename C:\Users\paul\AppData\Local\VirtualStore\Program Files (x86)\Exact Audio Copy\Flac\03 - Haircut 100 - Love Plus One (12'' Version).wav

    Pre-gap length  0:00:02.00

    Peak level 100.0 %
    Extraction speed 3.1 X
    Track quality 100.0 %
    Test CRC F71C9477
    Copy CRC F71C9477
    Accurately ripped (confidence 13)  [35AA6AAB]  (AR v2)
    Copy OK

Track  4

    Filename C:\Users\paul\AppData\Local\VirtualStore\Program Files (x86)\Exact Audio Copy\Flac\04 - Thompson Twins - Doctor Doctor (Long Version).wav

    Pre-gap length  0:00:02.00

    Peak level 98.8 %
    Extraction speed 3.5 X
    Track quality 100.0 %
    Test CRC 4B2D64B6
    Copy CRC 4B2D64B6
    Accurately ripped (confidence 13)  [5BBA7A0B]  (AR v2)
    Copy OK

Track  5

    Filename C:\Users\paul\AppData\Local\VirtualStore\Program Files (x86)\Exact Audio Copy\Flac\05 - Nena - 99 Red Balloons (12'' Club Mix).wav

    Pre-gap length  0:00:02.00

    Peak level 97.1 %
    Extraction speed 2.8 X
    Track quality 99.9 %
    Test CRC 4FFB4415
    Copy CRC 4FFB4415
    Accurately ripped (confidence 13)  [60F0F976]  (AR v2)
    Copy OK

Track  6

    Filename C:\Users\paul\AppData\Local\VirtualStore\Program Files (x86)\Exact Audio Copy\Flac\06 - Altered Images - Don't Talk To Me About Love (Extended Version).wav

    Pre-gap length  0:00:02.00

    Peak level 98.5 %
    Extraction speed 4.0 X
    Track quality 100.0 %
    Test CRC 6F6706F7
    Copy CRC 6F6706F7
    Accurately ripped (confidence 13)  [2DD03523]  (AR v2)
    Copy OK

Track  7

    Filename C:\Users\paul\AppData\Local\VirtualStore\Program Files (x86)\Exact Audio Copy\Flac\07 - Cyndi Lauper - Girls Just Want To Have Fun (Extended Version).wav

    Pre-gap length  0:00:02.00

    Peak level 98.5 %
    Extraction speed 4.2 X
    Track quality 100.0 %
    Test CRC A11BC122
    Copy CRC A11BC122
    Accurately ripped (confidence 13)  [F35108FD]  (AR v2)
    Copy OK

Track  8

    Filename C:\Users\paul\AppData\Local\VirtualStore\Program Files (x86)\Exact Audio Copy\Flac\08 - Matthew Wilder - Break My Stride (Remix , Club Version).wav

    Pre-gap length  0:00:02.00

    Peak level 100.0 %
    Extraction speed 4.4 X
    Track quality 100.0 %
    Test CRC 2166E205
    Copy CRC 2166E205
    Accurately ripped (confidence 13)  [65A60E64]  (AR v2)
    Copy OK

Track  9

    Filename C:\Users\paul\AppData\Local\VirtualStore\Program Files (x86)\Exact Audio Copy\Flac\09 - Mental As Anything - Live It Up (12'' Remix).wav

    Pre-gap length  0:00:02.00

    Peak level 96.6 %
    Extraction speed 4.6 X
    Track quality 100.0 %
    Test CRC BD54F427
    Copy CRC BD54F427
    Accurately ripped (confidence 13)  [59DFF2AE]  (AR v2)
    Copy OK

Track 10

    Filename C:\Users\paul\AppData\Local\VirtualStore\Program Files (x86)\Exact Audio Copy\Flac\10 - Men At Work - Down Under (Extended Version).wav

    Pre-gap length  0:00:02.00

    Peak level 98.4 %
    Extraction speed 4.8 X
    Track quality 100.0 %
    Test CRC EDB5E940
    Copy CRC EDB5E940
    Accurately ripped (confidence 13)  [EE0FA6AD]  (AR v2)
    Copy OK

All tracks accurately ripped

No errors occurred

End of status report

---- CUETools DB Plugin V2.1.4

[CTDB TOCID: Eh.As___QoFLalBUPcafgEKv1lY-] found
Submit result: Eh.As___QoFLalBUPcafgEKv1lY- has been confirmed
Track | CTDB Status
  1  | (28/28) Accurately ripped
  2  | (28/28) Accurately ripped
  3  | (28/28) Accurately ripped
  4  | (28/28) Accurately ripped
  5  | (28/28) Accurately ripped
  6  | (28/28) Accurately ripped
  7  | (28/28) Accurately ripped
  8  | (28/28) Accurately ripped
  9  | (28/28) Accurately ripped
 10  | (28/28) Accurately ripped

==== Log checksum 97F27F1FFADCB44E626F1B92FF7995A668C3A9131FFC932EB44394D4AB95AE4F ====

Disc 3

Code:

Exact Audio Copy V1.0 beta 4 from 7. December 2014

EAC extraction logfile from 24. October 2016, 20:10

Various Artists / Twelve Inch Eighties: You Spin Me Round [CD3]

Used drive  : MATSHITADVD-RAM UJ8D2Q  Adapter: 1  ID: 0

Read mode              : Secure
Utilize accurate stream : Yes
Defeat audio cache      : Yes
Make use of C2 pointers : No

Read offset correction                      : 103
Overread into Lead-In and Lead-Out          : No
Fill up missing offset samples with silence : Yes
Delete leading and trailing silent blocks  : No
Null samples used in CRC calculations      : Yes
Used interface                              : Native Win32 interface for Win NT & 2000
Gap handling                                : Appended to previous track

Used output format              : User Defined Encoder
Selected bitrate                : 896 kBit/s
Quality                        : High
Add ID3 tag                    : No
Command line compressor        : C:\Program Files (x86)\Exact Audio Copy\Flac\flac.exe
Additional command line options : -8 -V -T "ARTIST=%artist%" -T "TITLE=%title%" -T "ALBUM=%albumtitle%" -T "DATE=%year%" -T "TRACKNUMBER=%tracknr%" -T "TOTALTRACKS=%numtracks%" -T "GENRE=%genre%" -T "ALBUMARTIST=%albumartist%" -T "ALBUM ARTIST=%albumartist%" -T "COMMENT=EAC Secure Mode, Test & Copy, AccurateRip, FLAC -8" %source%

TOC of the extracted CD

    Track |  Start  |  Length  | Start sector | End sector
    ---------------------------------------------------------
        1  |  0:00.00 |  5:59.29 |        0    |    26953 
        2  |  5:59.29 |  4:39.20 |    26954    |    47898 
        3  | 10:38.49 |  6:22.31 |    47899    |    76579 
        4  | 17:01.05 |  6:05.31 |    76580    |  103985 
        5  | 23:06.36 |  5:22.44 |    103986    |  128179 
        6  | 28:29.05 |  7:31.69 |    128180    |  162073 
        7  | 36:00.74 |  3:52.56 |    162074    |  179529 
        8  | 39:53.55 |  7:46.28 |    179530    |  214507 
        9  | 47:40.08 |  5:43.45 |    214508    |  240277 
      10  | 53:23.53 |  4:52.31 |    240278    |  262208 

Track  1

    Filename C:\Users\paul\AppData\Local\VirtualStore\Program Files (x86)\Exact Audio Copy\Flac\01 - Belinda Carlisle - Heaven Is A Place On Earth (Heavenly Version).wav

    Pre-gap length  0:00:02.00

    Peak level 98.4 %
    Extraction speed 2.5 X
    Track quality 100.0 %
    Test CRC 06F79B8E
    Copy CRC 06F79B8E
    Accurately ripped (confidence 13)  [37A85B95]  (AR v2)
    Copy OK

Track  2

    Filename C:\Users\paul\AppData\Local\VirtualStore\Program Files (x86)\Exact Audio Copy\Flac\02 - Bangles - Manic Monday (Extended Remix).wav

    Pre-gap length  0:00:02.00

    Peak level 98.6 %
    Extraction speed 2.8 X
    Track quality 100.0 %
    Test CRC F7C00B62
    Copy CRC F7C00B62
    Accurately ripped (confidence 12)  [47271A39]  (AR v2)
    Copy OK

Track  3

    Filename C:\Users\paul\AppData\Local\VirtualStore\Program Files (x86)\Exact Audio Copy\Flac\03 - Bonnie Tyler - Holding Out For A Hero (Club Mix).wav

    Pre-gap length  0:00:02.00

    Peak level 98.7 %
    Extraction speed 3.2 X
    Track quality 100.0 %
    Test CRC 01A09897
    Copy CRC 01A09897
    Accurately ripped (confidence 13)  [1FB1EC68]  (AR v2)
    Copy OK

Track  4

    Filename C:\Users\paul\AppData\Local\VirtualStore\Program Files (x86)\Exact Audio Copy\Flac\04 - Hall & Oates - I Can't Go For That (Extended Club Mix).wav

    Pre-gap length  0:00:02.00

    Peak level 100.0 %
    Extraction speed 3.5 X
    Track quality 100.0 %
    Test CRC 28D49B47
    Copy CRC 28D49B47
    Accurately ripped (confidence 13)  [D2BF3FF3]  (AR v2)
    Copy OK

Track  5

    Filename C:\Users\paul\AppData\Local\VirtualStore\Program Files (x86)\Exact Audio Copy\Flac\05 - Rick Springfield - Celebrate Youth (Dance Mix).wav

    Pre-gap length  0:00:02.00

    Peak level 98.7 %
    Extraction speed 3.7 X
    Track quality 100.0 %
    Test CRC ADA1B97C
    Copy CRC ADA1B97C
    Accurately ripped (confidence 13)  [45BBB69C]  (AR v2)
    Copy OK

Track  6

    Filename C:\Users\paul\AppData\Local\VirtualStore\Program Files (x86)\Exact Audio Copy\Flac\06 - Paul Young - Come Back & Stay (12'' Version).wav

    Pre-gap length  0:00:02.00

    Peak level 99.0 %
    Extraction speed 4.0 X
    Track quality 100.0 %
    Test CRC 5B94DD3F
    Copy CRC 5B94DD3F
    Accurately ripped (confidence 12)  [A47C64A3]  (AR v2)
    Copy OK

Track  7

    Filename C:\Users\paul\AppData\Local\VirtualStore\Program Files (x86)\Exact Audio Copy\Flac\07 - Nick Heyward - Take That Situation (Rhythm Mix).wav

    Pre-gap length  0:00:02.00

    Peak level 99.5 %
    Extraction speed 2.9 X
    Track quality 99.9 %
    Test CRC 26F8943C
    Copy CRC 26F8943C
    Accurately ripped (confidence 12)  [C548F101]  (AR v2)
    Copy OK

Track  8

    Filename C:\Users\paul\AppData\Local\VirtualStore\Program Files (x86)\Exact Audio Copy\Flac\08 - Owen Paul - My Favourite Waste Of Time (12'' Jumbo Remix).wav

    Pre-gap length  0:00:02.00

    Peak level 98.6 %
    Extraction speed 4.5 X
    Track quality 100.0 %
    Test CRC EF3038A7
    Copy CRC EF3038A7
    Accurately ripped (confidence 12)  [6540DDA2]  (AR v2)
    Copy OK

Track  9

    Filename C:\Users\paul\AppData\Local\VirtualStore\Program Files (x86)\Exact Audio Copy\Flac\09 - Bros - When Will I Be Famous (12'' Infamous Mix).wav

    Pre-gap length  0:00:02.00

    Peak level 98.6 %
    Extraction speed 3.7 X
    Track quality 99.9 %
    Test CRC F570E0E8
    Copy CRC F570E0E8
    Accurately ripped (confidence 13)  [7FA923A2]  (AR v2)
    Copy OK

Track 10

    Filename C:\Users\paul\AppData\Local\VirtualStore\Program Files (x86)\Exact Audio Copy\Flac\10 - Bucks Fizz - My Camera Never Lies (12'' Version).wav

    Pre-gap length  0:00:02.00

    Peak level 98.9 %
    Extraction speed 4.7 X
    Track quality 100.0 %
    Test CRC A8FDFE36
    Copy CRC A8FDFE36
    Accurately ripped (confidence 13)  [7B0D41A3]  (AR v2)
    Copy OK

All tracks accurately ripped

No errors occurred

End of status report

---- CUETools DB Plugin V2.1.4

[CTDB TOCID: hQyksjxZ8BpUzzi7KGnMHLC2_7A-] found
Submit result: hQyksjxZ8BpUzzi7KGnMHLC2_7A- has been confirmed
Track | CTDB Status
  1  | (28/28) Accurately ripped
  2  | (28/28) Accurately ripped
  3  | (28/28) Accurately ripped
  4  | (28/28) Accurately ripped
  5  | (28/28) Accurately ripped
  6  | (28/28) Accurately ripped
  7  | (28/28) Accurately ripped
  8  | (28/28) Accurately ripped
  9  | (28/28) Accurately ripped
 10  | (27/28) Accurately ripped, or (1/28) differs in 9 samples @03:00:03,03:08:12-03:08:13,03:38:71,04:10:47

==== Log checksum 365BCCEB5E9402A686742C9F18655C077A60D9DA57C6C7B0948D983AAA88E196 ====

Cue

Disc 1

Code:

REM GENRE Electronic
REM DATE 2016
REM DISCID 970FFF0A
REM COMMENT "ExactAudioCopy v1.0b4"
PERFORMER "Various Artists"
TITLE "Twelve Inch Eighties: You Spin Me Round [CD1]"
FILE "01 - Dead Or Alive - You Spin Me Round (12″ Murder Mix).wav" WAVE
  TRACK 01 AUDIO
    TITLE "You Spin Me Round (12″ Murder Mix)"
    PERFORMER "Dead Or Alive"
    INDEX 01 00:00:00
  TRACK 02 AUDIO
    TITLE "I'm Not Scared (Disco Mix)"
    PERFORMER "Eighth Wonder"
    INDEX 00 08:00:63
FILE "02 - Eighth Wonder - I'm Not Scared (Disco Mix).wav" WAVE
    INDEX 01 00:00:00
  TRACK 03 AUDIO
    TITLE "Losing My Mind (Extended Mix)"
    PERFORMER "Liza Minnelli"
    INDEX 00 07:59:05
FILE "03 - Liza Minnelli - Losing My Mind (Extended Mix).wav" WAVE
    INDEX 01 00:00:00
  TRACK 04 AUDIO
    TITLE "Never Gonna Give You Up (12″ Cake Mix)"
    PERFORMER "Rick Astley"
    INDEX 00 06:58:40
FILE "04 - Rick Astley - Never Gonna Give You Up (12″ Cake Mix).wav" WAVE
    INDEX 01 00:00:00
  TRACK 05 AUDIO
    TITLE "I Feel The Earth Move (Club Mix)"
    PERFORMER "Martika"
    INDEX 00 05:46:31
FILE "05 - Martika - I Feel The Earth Move (Club Mix).wav" WAVE
    INDEX 01 00:00:00
  TRACK 06 AUDIO
    TITLE "Criticize (12″ Remix)"
    PERFORMER "Alexander O'neal"
    INDEX 00 06:36:12
FILE "06 - Alexander O'neal - Criticize (12″ Remix).wav" WAVE
    INDEX 01 00:00:00
  TRACK 07 AUDIO
    TITLE "The Finest (12″ Extended)"
    PERFORMER "S.O.S. Band"
    INDEX 00 07:00:14
FILE "07 - S.O.S. Band - The Finest (12″ Extended).wav" WAVE
    INDEX 01 00:00:00
  TRACK 08 AUDIO
    TITLE "Dinner With Gershwin (12″ Extended Version)"
    PERFORMER "Donna Summer"
    INDEX 00 06:04:05
FILE "08 - Donna Summer - Dinner With Gershwin (12″ Extended Version).wav" WAVE
    INDEX 01 00:00:00
  TRACK 09 AUDIO
    TITLE "123 (Extended Version)"
    PERFORMER "Gloria Estefan & Miami Sound Machine"
    INDEX 00 07:45:30
FILE "09 - Gloria Estefan & Miami Sound Machine - 123 (Extended Version).wav" WAVE
    INDEX 01 00:00:00
  TRACK 10 AUDIO
    TITLE "Can't Wait Another Minute (12″ Mix)"
    PERFORMER "Five Star"
    INDEX 00 04:32:33
FILE "10 - Five Star - Can't Wait Another Minute (12″ Mix).wav" WAVE
    INDEX 01 00:00:00

Disc 2

Code:

REM GENRE Electronic
REM DATE 2016
REM DISCID 6E0DA30A
REM COMMENT "ExactAudioCopy v1.0b4"
PERFORMER "Various Artists"
TITLE "Twelve Inch Eighties: You Spin Me Round [CD2]"
FILE "01 - Men Without Hats - Safety Dance (12″ Version).wav" WAVE
  TRACK 01 AUDIO
    TITLE "Safety Dance (12″ Version)"
    PERFORMER "Men Without Hats"
    INDEX 01 00:00:00
  TRACK 02 AUDIO
    TITLE "Quiet Life (12″ Version)"
    PERFORMER "Japan"
    INDEX 00 05:18:40
FILE "02 - Japan - Quiet Life (12″ Version).wav" WAVE
    INDEX 01 00:00:00
  TRACK 03 AUDIO
    TITLE "Love Plus One (12″ Version)"
    PERFORMER "Haircut 100"
    INDEX 00 04:50:21
FILE "03 - Haircut 100 - Love Plus One (12″ Version).wav" WAVE
    INDEX 01 00:00:00
  TRACK 04 AUDIO
    TITLE "Doctor Doctor (Long Version)"
    PERFORMER "Thompson Twins"
    INDEX 00 05:36:56
FILE "04 - Thompson Twins - Doctor Doctor (Long Version).wav" WAVE
    INDEX 01 00:00:00
  TRACK 05 AUDIO
    TITLE "99 Red Balloons (12″ Club Mix)"
    PERFORMER "Nena"
    INDEX 00 07:52:27
FILE "05 - Nena - 99 Red Balloons (12″ Club Mix).wav" WAVE
    INDEX 01 00:00:00
  TRACK 06 AUDIO
    TITLE "Don't Talk To Me About Love (Extended Version)"
    PERFORMER "Altered Images"
    INDEX 00 04:40:64
FILE "06 - Altered Images - Don't Talk To Me About Love (Extended Version).wav" WAVE
    INDEX 01 00:00:00
  TRACK 07 AUDIO
    TITLE "Girls Just Want To Have Fun (Extended Version)"
    PERFORMER "Cyndi Lauper"
    INDEX 00 06:58:00
FILE "07 - Cyndi Lauper - Girls Just Want To Have Fun (Extended Version).wav" WAVE
    INDEX 01 00:00:00
  TRACK 08 AUDIO
    TITLE "Break My Stride (Remix / Club Version)"
    PERFORMER "Matthew Wilder"
    INDEX 00 06:02:10
FILE "08 - Matthew Wilder - Break My Stride (Remix , Club Version).wav" WAVE
    INDEX 01 00:00:00
  TRACK 09 AUDIO
    TITLE "Live It Up (12″ Remix)"
    PERFORMER "Mental As Anything"
    INDEX 00 05:07:60
FILE "09 - Mental As Anything - Live It Up (12″ Remix).wav" WAVE
    INDEX 01 00:00:00
  TRACK 10 AUDIO
    TITLE "Down Under (Extended Version)"
    PERFORMER "Men At Work"
    INDEX 00 06:03:74
FILE "10 - Men At Work - Down Under (Extended Version).wav" WAVE
    INDEX 01 00:00:00

Disc 3

Code:

REM GENRE Electronic
REM DATE 2016
REM DISCID 740DA80A
REM COMMENT "ExactAudioCopy v1.0b4"
PERFORMER "Various Artists"
TITLE "Twelve Inch Eighties: You Spin Me Round [CD3]"
FILE "01 - Belinda Carlisle - Heaven Is A Place On Earth (Heavenly Version).wav" WAVE
  TRACK 01 AUDIO
    TITLE "Heaven Is A Place On Earth (Heavenly Version)"
    PERFORMER "Belinda Carlisle"
    INDEX 01 00:00:00
FILE "02 - Bangles - Manic Monday (Extended Remix).wav" WAVE
  TRACK 02 AUDIO
    TITLE "Manic Monday (Extended Remix)"
    PERFORMER "Bangles"
    PREGAP 00:02:00
    INDEX 01 00:00:00
FILE "03 - Bonnie Tyler - Holding Out For A Hero (Club Mix).wav" WAVE
  TRACK 03 AUDIO
    TITLE "Holding Out For A Hero (Club Mix)"
    PERFORMER "Bonnie Tyler"
    PREGAP 00:02:00
    INDEX 01 00:00:00
FILE "04 - Hall & Oates - I Can't Go For That (Extended Club Mix).wav" WAVE
  TRACK 04 AUDIO
    TITLE "I Can't Go For That (Extended Club Mix)"
    PERFORMER "Hall & Oates"
    PREGAP 00:02:00
    INDEX 01 00:00:00
FILE "05 - Rick Springfield - Celebrate Youth (Dance Mix).wav" WAVE
  TRACK 05 AUDIO
    TITLE "Celebrate Youth (Dance Mix)"
    PERFORMER "Rick Springfield"
    PREGAP 00:02:00
    INDEX 01 00:00:00
FILE "06 - Paul Young - Come Back & Stay (12″ Version).wav" WAVE
  TRACK 06 AUDIO
    TITLE "Come Back & Stay (12″ Version)"
    PERFORMER "Paul Young"
    PREGAP 00:02:00
    INDEX 01 00:00:00
FILE "07 - Nick Heyward - Take That Situation (Rhythm Mix).wav" WAVE
  TRACK 07 AUDIO
    TITLE "Take That Situation (Rhythm Mix)"
    PERFORMER "Nick Heyward"
    PREGAP 00:02:00
    INDEX 01 00:00:00
FILE "08 - Owen Paul - My Favourite Waste Of Time (12″ Jumbo Remix).wav" WAVE
  TRACK 08 AUDIO
    TITLE "My Favourite Waste Of Time (12″ Jumbo Remix)"
    PERFORMER "Owen Paul"
    PREGAP 00:02:00
    INDEX 01 00:00:00
FILE "09 - Bros - When Will I Be Famous (12″ Infamous Mix).wav" WAVE
  TRACK 09 AUDIO
    TITLE "When Will I Be Famous (12″ Infamous Mix)"
    PERFORMER "Bros"
    PREGAP 00:02:00
    INDEX 01 00:00:00
FILE "10 - Bucks Fizz - My Camera Never Lies (12″ Version).wav" WAVE
  TRACK 10 AUDIO
    TITLE "My Camera Never Lies (12″ Version)"
    PERFORMER "Bucks Fizz"
    PREGAP 00:02:00
    INDEX 01 00:00:00

FileFactory | Share-Online

broken link or archive - pm on me

enjoy!


[Pop] Twelve Inch Eighties - You Spin Me Round (3CD) (2016)
Download links:


Related News:


Add comments

Your Name:
Your E-Mail:

Enter the words shown in captcha:


Attention!!! Comments moderated and will not appear immediately. Do not post a comment twice.