[Sport] Formel 1 Nico Rosberg Angekommen 25032017 German Doku 1080i HDTV x264 - Footballars

Formel 1 Nico Rosberg Angekommen 25032017 German Doku 1080i HDTV x264 - Footballars

Die beiden RTL-Reporter Thomas Soßna und Tristan Söhngen zeichnen die Karriere des deutschen Formel-1-Weltmeisters nach, der unmittelbar nach seinem WM-Sieg 2016 überraschend zurückgetreten war. In langen, exklusiven Interviews spricht Nico Rosberg selbst über seinen Entschluss und über seine künftigen Pläne.

Channel - RTL HD
Video - 8628 kbps
FPS - 25 fps
Resolution - 1920 x 1080i (use Media Player Classic for interlaced files to watch it 50 fps progressive)
Audio - German - AC3 2.0 - 384 kbps
Format - TS
Runtime - 23:43 min
Size - 1.57 GB
Host - Uploaded + Share-Online

Media-Info

Code:

Complete name              : F1.Nico.Rosberg.Angekommen.25032017.1080i.Footballars.ts
Format                      : MPEG-TS
File size                  : 1.57 GiB
Duration                    : 23 min 43 s
Overall bit rate mode      : Variable
Overall bit rate            : 9 485 kb/s

Video
ID                          : 6641 (0x19F1)
Menu ID                    : 50012 (0xC35C)
Format                      : AVC
Format/Info                : Advanced Video Codec
Format profile              : High@L4
Format settings, CABAC      : Yes
Format settings, ReFrames  : 4 frames
Codec ID                    : 27
Duration                    : 23 min 43 s
Bit rate                    : 8 628 kb/s
Width                      : 1 920 pixels
Height                      : 1 080 pixels
Display aspect ratio        : 16:9
Frame rate                  : 25.000 FPS
Standard                    : Component
Color space                : YUV
Chroma subsampling          : 4:2:0
Bit depth                  : 8 bits
Scan type                  : Interlaced
Scan type, store method    : Separated fields
Scan order                  : Top Field First
Bits/(Pixel*Frame)          : 0.166
Stream size                : 1.43 GiB (91%)
Color range                : Limited
Color primaries            : BT.709
Transfer characteristics    : BT.709
Matrix coefficients        : BT.709

Audio
ID                          : 6642 (0x19F2)
Menu ID                    : 50012 (0xC35C)
Format                      : AC-3
Format/Info                : Audio Coding 3
Format settings, Endianness : Big
Codec ID                    : 6
Duration                    : 23 min 43 s
Bit rate mode              : Constant
Bit rate                    : 384 kb/s
Channel(s)                  : 2 channels
Channel positions          : Front: L R
Sampling rate              : 48.0 kHz
Frame rate                  : 31.250 FPS (1536 spf)
Bit depth                  : 16 bits
Compression mode            : Lossy
Delay relative to video    : -80 ms
Stream size                : 65.2 MiB (4%)
Language                    : German
Service kind                : Complete Main

Uploaded

HIER KLICKEN / CLICK HERE

Share-Online

HIER KLICKEN / CLICK HERE

"Bedanken" würde mich sehr freuen


[Sport] Formel 1 Nico Rosberg Angekommen 25032017 German Doku 1080i HDTV x264 - Footballars
Download links:


Related News:


Add comments

Your Name:
Your E-Mail:

Enter the words shown in captcha:


Attention!!! Comments moderated and will not appear immediately. Do not post a comment twice.