[Adventure] Passengers 2016 German AC3LD BDRiP XViD - XDD

Passengers.2016.German.AC3LD.BDRiP.XViD-XDD

Ein Raumschiff ist auf dem Weg zu einem weit entfernten besiedelten Planeten, während sich die Passagiere an Bord in einem Tiefschlaf befinden. Doch durch eine Störung erwachen zu früh – 60 Jahre zu früh! Während einer Routinereise durch das All zu einem neuen Heimatplaneten erwachen zwei Passagiere aufgrund einer Fehlfunktion ihres Raumschiffs 90 Jahre zu früh aus dem Kälteschlaf, in den sie versetzt worden sind. Aurora (Jennifer Lawrence) und Jim (Chris Pratt) steht nun bevor, ihr gesamtes restliches Leben an Bord dieses Raumschiffs verbringen zu müssen. Umgeben von jedem nur denkbaren Luxus fühlen sie sich stark zueinander hingezogen und verlieben sich ineinander. Doch plötzlich entdecken sie, dass sich ihr Raumschiff in großer Gefahr befindet. Das Leben von 5.000 schlafenden Passagieren steht auf dem Spiel – und nur Jim und Aurora können sie retten…

Title: Passengers
Genre: Acdventure
Sprache: Deutsch
Video Stream: BDRiP
Video Codec: XViD / AVI
Audio Stream: Line
Laufzeit: 112 Minuten
Größe: 1240 MB
Parts: 2

NFO

Code:

Video: MPEG-4 Visual (XviD), 720x304, 23.976 FPS, 1291 kb/s
Audio: AC-3, 48.0 kHz, 2 channels, 224 kb/s

MEDIAINFO

Code:

General
Complete name                            : xddpssngrsbdxvld.avi
Format                                  : AVI
Format/Info                              : Audio Video Interleave
File size                                : 1.24 GiB
Duration                                : 01:56:10
Overall bit rate                        : 1 524 kb/s
Writing application                      : VirtualDubMod 1.5.10.2 (build 2540/release)
Writing library                          : VirtualDubMod build 2540/release

Video
ID                                      : 0
Format                                  : MPEG-4 Visual
Format profile                          : Advanced Simple@L5
Format settings, BVOP                    : 2
Format settings, QPel                    : No
Format settings, GMC                    : No warppoints
Format settings, Matrix                  : Custom
Codec ID                                : XVID
Codec ID/Hint                            : XviD
Duration                                : 01:56:10
Bit rate                                : 1 291 kb/s
Width                                    : 720 pixels
Height                                  : 304 pixels
Display aspect ratio                    : 2.35:1
Frame rate                              : 23.976 (24000/1001) FPS
Color space                              : YUV
Chroma subsampling                      : 4:2:0
Bit depth                                : 8 bits
Scan type                                : Progressive
Compression mode                        : Lossy
Bits/(Pixel*Frame)                      : 0.246
Stream size                              : 1.05 GiB (85%)
Writing library                          : XviD 1.2.1 (UTC 2008-12-04)

Audio
ID                                      : 1
Format                                  : AC-3
Format/Info                              : Audio Coding 3
Mode extension                          : CM (complete main)
Format settings, Endianness              : Big
Codec ID                                : 2000
Duration                                : 01:56:10
Bit rate mode                            : Constant
Bit rate                                : 224 kb/s
Channel(s)                              : 2 channels
Channel positions                        : Front: L R
Sampling rate                            : 48.0 kHz
Frame rate                              : 31.250 FPS (1536 spf)
Bit depth                                : 16 bits
Compression mode                        : Lossy
Delay relative to video                  : 1 s 0 ms
Stream size                              : 186 MiB (15%)
Alignment                                : Split accross interleaves
Interleave, duration                    : 42  ms (1.00 video frame)
Interleave, preload duration            : 500  ms

SAMPLE

Uploaded.net

Share-online.biz


[Adventure] Passengers 2016 German AC3LD BDRiP XViD - XDD
Download links:


Related News:


Add comments

Your Name:
Your E-Mail:

Enter the words shown in captcha:


Attention!!! Comments moderated and will not appear immediately. Do not post a comment twice.