[Action] xXx Die Rueckkehr des Xander Cage 2017 German AC3 Dubbed 1080p WebHD x264 - XDD

xXx.Die.Rueckkehr.des.Xander.Cage.2017.German.AC3. Dubbed.1080p.WebHD.x264-XDD

Auf Bitten seines Kontaktmannes Agent Augustus Eugene Gibbons (Samuel L. Jackson) kehrt der für tot gehaltene Extremsportler Xander Cage (Vin Diesel) aus seinem selbstauferlegten Exil zurück, um erneut als Geheimagent für die US-Regierung zu arbeiten. Dieses Mal muss er eine ebenso unaufhaltbare wie zerstörerische Waffe namens "Die Büchse der Pandora" bergen. Zeitgleich machen sich auch der sinistere Xiang (Donnie Yen) und dessen Schergen daran, die todbringende Waffe in ihren Besitz zu bringen. Zusammen mit seinem neuen Team kampfbereiter adrenalinsüchtiger Profis (u.a. Deepika Padukone, Ruby Rose und Nina Dobrev) findet sich Xander schon bald in einer tödlichen Verschwörung wieder, in die sogar Repräsentanten auf Regierungsebene verwickelt sind...

Title: xXx Die Rueckkehr des Xander Cage
Genre: Action
Sprache: Deutsch
Video Stream: WEBHD 1080p
Video Codec: H.264 / AVC / MKV
Audio Stream: Line
Laufzeit: 107 Minuten
Größe: 2770 MB
Parts: 4

NFO

Code:

Video: AVC, 1920x800, 29.970 FPS, 3500 kb/s
Audio: AC-3, 48.0 kHz, 2 channels, 224 kb/s
Subs: ASIA Hardcoded

MEDIAINFO

Code:

General
Unique ID                                : 200627799802942628619882790173495789542 (0x96EF823C3DA449E08718F8192BB807E6)
Complete name                            : xddx3drckkhrdsxndrcgwbhd18pld.mkv
Format                                  : Matroska
Format version                          : Version 4 / Version 2
File size                                : 2.77 GiB
Duration                                : 01:46:18
Overall bit rate mode                    : Variable
Overall bit rate                        : 3 725 kb/s
Encoded date                            : UTC 2017-03-11 18:39:22
Writing application                      : mkvmerge v7.0.0 ('Where We Going') 64bit built on Jun  9 2014 15:16:27
Writing library                          : libebml v1.3.0 + libmatroska v1.4.1

Video
ID                                      : 1
Format                                  : AVC
Format/Info                              : Advanced Video Codec
Format profile                          : High@L4.1
Format settings, CABAC                  : Yes
Format settings, ReFrames                : 5 frames
Codec ID                                : V_MPEG4/ISO/AVC
Duration                                : 01:46:18
Bit rate mode                            : Variable
Bit rate                                : 3 500 kb/s
Maximum bit rate                        : 62.5 Mb/s
Width                                    : 1 920 pixels
Height                                  : 800 pixels
Display aspect ratio                    : 2.40:1
Frame rate mode                          : Constant
Frame rate                              : 29.970 (30000/1001) FPS
Frame rate                      : 29.970 (29970/1000) FPS
Color space                              : YUV
Chroma subsampling                      : 4:2:0
Bit depth                                : 8 bits
Scan type                                : Progressive
Bits/(Pixel*Frame)                      : 0.076
Stream size                              : 2.60 GiB (94%)
Writing library                          : x264 core 144 r2525 40bb568
Encoding settings                        : cabac=1 / ref=5 / deblock=1:0:0 / analyse=0x3:0x133 / me=umh / subme=8 / psy=1 / psy_rd=1.00:0.00 / mixed_ref=1 / me_range=16 / chroma_me=1 / trellis=1 / 8x8dct=1 / cqm=0 / deadzone=21,11 / fast_pskip=1 / chroma_qp_offset=-2 / threads=12 / lookahead_threads=2 / sliced_threads=0 / nr=0 / decimate=1 / interlaced=0 / bluray_compat=0 / constrained_intra=0 / bframes=3 / b_pyramid=2 / b_adapt=2 / b_bias=0 / direct=3 / weightb=1 / open_gop=0 / weightp=2 / keyint=240 / keyint_min=24 / scenecut=40 / intra_refresh=0 / rc_lookahead=50 / rc=2pass / mbtree=1 / bitrate=3500 / ratetol=1.0 / qcomp=0.60 / qpmin=0 / qpmax=69 / qpstep=4 / cplxblur=20.0 / qblur=0.5 / vbv_maxrate=62500 / vbv_bufsize=62500 / nal_hrd=vbr / filler=0 / ip_ratio=1.40 / aq=1:1.00
Default                                  : Yes
Forced                                  : No

Audio
ID                                      : 2
Format                                  : AC-3
Format/Info                              : Audio Coding 3
Mode extension                          : CM (complete main)
Format settings, Endianness              : Big
Codec ID                                : A_AC3
Duration                                : 01:46:18
Bit rate mode                            : Constant
Bit rate                                : 224 kb/s
Channel(s)                              : 2 channels
Channel positions                        : Front: L R
Sampling rate                            : 48.0 kHz
Frame rate                              : 31.250 FPS (1536 spf)
Bit depth                                : 16 bits
Compression mode                        : Lossy
Stream size                              : 170 MiB (6%)
Language                                : German
Default                                  : Yes
Forced                                  : No

Text
ID                                      : 3
Format                                  : ASS
Codec ID                                : S_TEXT/ASS
Codec ID/Info                            : Advanced Sub Station Alpha
Duration                                : 1 h 25 min
Bit rate                                : 3 b/s
Count of elements                        : 27
Compression mode                        : Lossless
Stream size                              : 1.98 KiB (0%)
Title                                    : Forced
Language                                : German
Default                                  : Yes
Forced                                  : No

SAMPLE

Uploaded.net

Share-online.biz


[Action] xXx Die Rueckkehr des Xander Cage 2017 German AC3 Dubbed 1080p WebHD x264 - XDD
Download links:


Related News:


Add comments

Your Name:
Your E-Mail:

Enter the words shown in captcha:


Attention!!! Comments moderated and will not appear immediately. Do not post a comment twice.

Related links:

Die Liga Der Aussergewoehnlichen Gentlemen 2003 German Dl Dts 1080p Bluray ... (74) Die Legende Von Beowulf Dc 2007 German Ac3 Dl 1080p Bluray X264 Pk (92) Die Tribute Von Panem Catching Fire German Dts Dl 1080p Bluray X264 Koc (51) Wolverine Weg Des Kriegers Extended 2013 German Dts Dl 1080p Bluray X264 Pk (27) Die.liga.der.aussergewoehnlichen.gentlemen.2003.german.dl.dts.1080p.bluray. ... (1) Die.liga.der.aussergewoehnlichen.gentlemen.2003.german.dl.dts.1080p.bluray. ... (173) Aloha Die Chance Auf Glueck German Dl Ac3 Dubbed 1080p Bluray X264 Pso (96) Action Spooks Verraeter In Den Eigenen Reihen 2015 German Dts Dl 1080p Blur ... (53) Action The Transporter Refueled German Ac3 Dubbed 720p Bluray X264 Reliable (71) 34 Die.frau.des.zeitreisenden.2009.german.ac3.dl.1080p.bluray.x264 Sow 34 (36) Die Kunst Zu Gewinnen Moneyball 2011 German Dts Dl 1080p Bluray X264 Pate (31) Marvels.agent.carter.s02e01.die.dame.im.see.german.dl.dubbed.720p.webhd.x26 ... (60) Action The Last Witch Hunter German Ac3 Dubbed 1080p Webhd H264 Pso (89) Action Beyond Valkyrie Morgendaemmerung Des Vierten Reichs 2016 German Ac3 ... (117) Action Beyond Valkyrie Morgendaemmerung Des Vierten Reichs 2016 German Ac3 ... (58) Franklyn Die Wahrheit Traegt Viele Masken 2008 German Dts Dl 1080p Bluray X ... (46) Die Verdammten Des Krieges 1989 Extended German Ac3d 720p Jap Bluray X264 M ... (57) Action Pirates Of The Caribbean Salazars Rache 2017 German Ac3 Bdrip X264 W ... (93) Die.eiskoenigin.olaf.taut.auf.2017.german.md.dl.720p.web.x264 Spectre (29) Horror Annabelle 2 2017 German Ac3 Dubbed 1080p Bluray X264 Boxoffice (29)