[Rock] Mark Knopfler - Kill To Get Crimson (2007)

Tracklist:

01. True Love Will Never Fade [4:22]
02. The Scaffolder's Wife [3:52]
03. The Fizzy and the Still [4:08]
04. Heart Full of Holes [6:36]
05. We Can Get Wild [4:19]
06. Secondary Waltz [3:44]
07. Punish the Monkey [4:38]
08. Let it All Go [5:18]
09. Behind With the Rent [4:49]
10. The Fish and the Bird [3:45]
11. Madame Geneva's [3:59]
12. In the Sky [7:31]

Log:

Exact Audio Copy V1.0 beta 3 from 29. August 2011

EAC extraction logfile from 10. October 2013, 13:12

Mark Knopfler / Kill to Get Crimson

Used drive : TSSTcorpCDDVDW SH-222BB Adapter: 3 ID: 1

Read mode : Secure
Utilize accurate stream : Yes
Defeat audio cache : Yes
Make use of C2 pointers : No

Read offset correction : 6
Overread into Lead-In and Lead-Out : No
Fill up missing offset samples with silence : Yes
Delete leading and trailing silent blocks : No
Null samples used in CRC calculations : Yes
Used interface : Installed external ASPI interface

Used output format : User Defined Encoder
Selected bitrate : 1024 kBit/s
Quality : High
Add ID3 tag : No
Command line compressor : C:\Program Files (x86)\Exact Audio Copy\wavpack.exe
Additional command line options : -hm %source% %dest%

TOC of the extracted CD

Track | Start | Length | Start sector | End sector
---------------------------------------------------------
1 | 0:00.00 | 4:21.66 | 0 | 19640
2 | 4:21.66 | 3:52.03 | 19641 | 37043
3 | 8:13.69 | 4:07.67 | 37044 | 55635
4 | 12:21.61 | 6:36.16 | 55636 | 85351
5 | 18:58.02 | 4:18.71 | 85352 | 104772
6 | 23:16.73 | 3:43.71 | 104773 | 121568
7 | 27:00.69 | 4:38.15 | 121569 | 142433
8 | 31:39.09 | 5:18.35 | 142434 | 166318
9 | 36:57.44 | 4:48.55 | 166319 | 187973
10 | 41:46.24 | 3:45.15 | 187974 | 204863
11 | 45:31.39 | 3:59.03 | 204864 | 222791
12 | 49:30.42 | 7:31.15 | 222792 | 256631

Range status and errors

Selected range

Filename F:\NetLab\Mark Knopfler - Kill to Get Crimson\Mark Knopfler - Kill to Get Crimson.wav

Peak level 100.0 %
Extraction speed 7.4 X
Range quality 100.0 %
Test CRC 5B063638
Copy CRC 5B063638
Copy OK

No errors occurred

AccurateRip summary

Track 1 cannot be verified as accurate (confidence 200) [97CF1BCF], AccurateRip returned [5631E258] (AR v2)
Track 2 cannot be verified as accurate (confidence 200) [432D1FD0], AccurateRip returned [6672593A] (AR v2)
Track 3 cannot be verified as accurate (confidence 200) [C9848047], AccurateRip returned [3D1618EA] (AR v2)
Track 4 cannot be verified as accurate (confidence 200) [1A63E7EA], AccurateRip returned [5F506C6B] (AR v2)
Track 5 cannot be verified as accurate (confidence 200) [7C24EFE3], AccurateRip returned [2E466083] (AR v2)
Track 6 cannot be verified as accurate (confidence 200) [CB556B61], AccurateRip returned [A155343C] (AR v2)
Track 7 cannot be verified as accurate (confidence 200) [A2FABF0C], AccurateRip returned [9AAF8BF0] (AR v2)
Track 8 cannot be verified as accurate (confidence 200) [D1DE4058], AccurateRip returned [AFAACDD4] (AR v2)
Track 9 cannot be verified as accurate (confidence 200) [2CEC5194], AccurateRip returned [6163EE7E] (AR v2)
Track 10 cannot be verified as accurate (confidence 200) [28031F2A], AccurateRip returned [93983416] (AR v2)
Track 11 cannot be verified as accurate (confidence 200) [AE622141], AccurateRip returned [7A31F8F0] (AR v2)
Track 12 cannot be verified as accurate (confidence 200) [B3673DBB], AccurateRip returned [33D3AF3F] (AR v2)

No tracks could be verified as accurate
You may have a different pressing from the one(s) in the database

End of status report

Cue:

REM GENRE "Rock"
REM DATE 2007
REM DISCID 9E0D5D0C
REM COMMENT "ExactAudioCopy v1.0b3"
PERFORMER "Mark Knopfler"
TITLE "Kill to Get Crimson"
FILE "Mark Knopfler - 2007 - Kill to Get Crimson.flac" WAVE
TRACK 01 AUDIO
TITLE "True Love Will Never Fade"
PERFORMER "Mark Knopfler"
INDEX 01 00:00:00
TRACK 02 AUDIO
TITLE "The Scaffolder's Wife"
PERFORMER "Mark Knopfler"
INDEX 01 04:21:66
TRACK 03 AUDIO
TITLE "The Fizzy and the Still"
PERFORMER "Mark Knopfler"
INDEX 01 08:13:69
TRACK 04 AUDIO
TITLE "Heart Full of Holes"
PERFORMER "Mark Knopfler"
INDEX 00 12:20:57
INDEX 01 12:21:61
TRACK 05 AUDIO
TITLE "We Can Get Wild"
PERFORMER "Mark Knopfler"
INDEX 01 18:58:02
TRACK 06 AUDIO
TITLE "Secondary Waltz"
PERFORMER "Mark Knopfler"
INDEX 00 23:15:03
INDEX 01 23:16:73
TRACK 07 AUDIO
TITLE "Punish the Monkey"
PERFORMER "Mark Knopfler"
INDEX 00 27:00:27
INDEX 01 27:00:69
TRACK 08 AUDIO
TITLE "Let it All Go"
PERFORMER "Mark Knopfler"
INDEX 00 31:37:45
INDEX 01 31:39:09
TRACK 09 AUDIO
TITLE "Behind With the Rent"
PERFORMER "Mark Knopfler"
INDEX 00 36:56:53
INDEX 01 36:57:44
TRACK 10 AUDIO
TITLE "The Fish and the Bird"
PERFORMER "Mark Knopfler"
INDEX 00 41:43:40
INDEX 01 41:46:24
TRACK 11 AUDIO
TITLE "Madame Geneva's"
PERFORMER "Mark Knopfler"
INDEX 01 45:31:39
TRACK 12 AUDIO
TITLE "In the Sky"
PERFORMER "Mark Knopfler"
INDEX 01 49:30:42

Format: FLAC
Bitrate: lossless
Größe: 364 MB

Download

Share-Online, Uploaded

http://relink.to/f/f83377b8e6c020d12d219dc70043b2

Nur 1x gepackt, kein Passwort, Mirror kompatibel


[Rock] Mark Knopfler - Kill To Get Crimson (2007)
Download links:


Related News:


Add comments

Your Name:
Your E-Mail:

Enter the words shown in captcha:


Attention!!! Comments moderated and will not appear immediately. Do not post a comment twice.