[Action] Mechanic Resurrection 2016 DVD - SCREENER x264 AAC2 0 - BOOP

Mechanic.Resurrection.2016.DVD-SCREENER.x264.AAC2.0-BOOP

Zitat:

Genre: Action - Sprache/n: Englisch - Video: DVD-SCR - Audio: Stereo - Codec: MPEG-4 H.264 / AVC

Sample: http://www68.zippyshare.com/v/uXjRiGhF/file.html

Nachdem er einen Anschlag auf sein Leben nur knapp überlebte, will Arthur Bishop (Jason Statham) seinen Job als Auftragskiller an den Nagel hängen. Doch dann durchkreuzt sein Erzfeind Bishops Pläne, indem er dessen große Liebe kidnappt und ihn erpresst, um in seinem Auftrag drei scheinbar unmögliche Mordaufträge auszuführen. Also packt Bishop seine Waffen ein und reist rund um den Globus, um einmal mehr sein besonderes Talent einzusetzen: Menschen um die Ecke zu bringen und es wie einen Unfall aussehen zu lassen…

Größe: 649,65 MB

Uploaded.net

Mechanic.Resurrection.2016.DVD-SCREENER.x264.AAC2.0-BOOP

Share-online.biz

Mechanic.Resurrection.2016.DVD-SCREENER.x264.AAC2.0-BOOP

NFO

Code:

General
Complete name                  : Mechanic.Resurrection.2016.DVD-SCREENER.x264.AAC2.0-BOOP.mp4
Format                        : MPEG-4
Format profile                : Base Media / Version 2
Codec ID                      : mp42 (isom/iso2/avc1/mp41)
File size                      : 650 MiB
Duration                      : 1h 35mn
Overall bit rate mode          : Variable
Overall bit rate              : 955 Kbps
Encoded date                  : UTC 2016-08-04 05:51:09
Tagged date                    : UTC 2016-08-04 05:51:09
Writing application            : HandBrake 0.10.5 2016021100

Video
ID                            : 1
Format                        : AVC
Format/Info                    : Advanced Video Codec
Format profile                : Main@L4
Format settings, CABAC        : Yes
Format settings, ReFrames      : 4 frames
Codec ID                      : avc1
Codec ID/Info                  : Advanced Video Coding
Duration                      : 1h 35mn
Bit rate                      : 800 Kbps
Width                          : 720 pixels
Height                        : 306 pixels
Display aspect ratio          : 2.35:1
Frame rate mode                : Variable
Frame rate                    : 23.976 (23976/1000) fps
Minimum frame rate            : 8.020 fps
Maximum frame rate            : 23.981 fps
Color space                    : YUV
Chroma subsampling            : 4:2:0
Bit depth                      : 8 bits
Scan type                      : Progressive
Bits/(Pixel*Frame)            : 0.151
Stream size                    : 536 MiB (83%)
Writing library                : x264 core 142 r2479 dd79a61
Encoding settings              : cabac=1 / ref=1 / deblock=1:0:0 / analyse=0x1:0x111 / me=hex / subme=2 / psy=1 / psy_rd=1.00:0.00 / mixed_ref=0 / me_range=16 / chroma_me=1 / trellis=0 / 8x8dct=0 / cqm=0 / deadzone=21,11 / fast_pskip=1 / chroma_qp_offset=0 / threads=12 / lookahead_threads=2 / sliced_threads=0 / nr=0 / decimate=1 / interlaced=0 / bluray_compat=0 / constrained_intra=0 / bframes=3 / b_pyramid=2 / b_adapt=1 / b_bias=0 / direct=1 / weightb=1 / open_gop=0 / weightp=1 / keyint=240 / keyint_min=24 / scenecut=40 / intra_refresh=0 / rc_lookahead=10 / rc=abr / mbtree=1 / bitrate=800 / ratetol=1.0 / qcomp=0.60 / qpmin=0 / qpmax=69 / qpstep=4 / vbv_maxrate=20000 / vbv_bufsize=25000 / nal_hrd=none / filler=0 / ip_ratio=1.40 / aq=1:1.00
Encoded date                  : UTC 2016-08-04 05:51:09
Tagged date                    : UTC 2016-08-04 05:51:09
Color range                    : Limited
Color primaries                : BT.601 NTSC
Transfer characteristics      : BT.709
Matrix coefficients            : BT.601

Audio
ID                            : 2
Format                        : AAC
Format/Info                    : Advanced Audio Codec
Format profile                : LC
Codec ID                      : 40
Duration                      : 1h 35mn
Bit rate mode                  : Variable
Bit rate                      : 160 Kbps
Channel(s)                    : 2 channels
Channel positions              : Front: L R
Sampling rate                  : 44.1 KHz
Frame rate                    : 43.066 fps (1024 spf)
Compression mode              : Lossy
Stream size                    : 109 MiB (17%)
Title                          : Stereo / Stereo
Default                        : Yes
Alternate group                : 1
Encoded date                  : UTC 2016-08-04 05:51:09
Tagged date                    : UTC 2016-08-04 05:51:09


[Action] Mechanic Resurrection 2016 DVD - SCREENER x264 AAC2 0 - BOOP
Download links:


Related News:


Add comments

Your Name:
Your E-Mail:

Enter the words shown in captcha:


Attention!!! Comments moderated and will not appear immediately. Do not post a comment twice.