[Adventure] Captain America Civil War 2016 1080p TC X264 Masteredition Hive-CM8

Captain America Civil War 2016 1080p TC X264 Masteredition Hive-CM8

Information:

Code:

Sources:
Video: 1080p Chinese Telecine
Audio: Direct Line  (CPG/Exclusive)

Notes:
This is a special Encode which took me cpl days of work, but the result is excellent, its a masterpiece from this source.
I have encoded it in 1080p only cause this movie needs quality. looks and sounds perfect a real cinemafeeling.
Quality is tested and optimized to look perfect even on a 75" 4K TV.

Encode:
The Chinese telecine needed a lot of work,was all green again, no real colours
fixed brightness,constrast,colours,saturation,black base,white base,for all scenes
it was a pita, but totally worth it. nothing is cut from the movie btw.
comes along with bonus credits scene and the aftercredits scene
Line Audio was great, lipsynced to my video.

Video: 1920x852 @bitrate 5000-8000
Audio: Line AC3 2.0 Stereo

http://www.imdb.com/title/tt3498820/

General
Complete name                  : Captain.America.Civil.War.2016.1080p.TC.X264.Masteredition.Hive-CM8.mkv
Format                        : Matroska
Format version                : Version 2
File size                      : 5.40 GiB
Duration                      : 2h 27mn
Overall bit rate mode          : Variable
Overall bit rate              : 5 254 Kbps
Encoded date                  : UTC 2016-05-11 23:03:02
Writing application            : mkvmerge v5.6.0 ('Kenya Kane') built on May 27 2012 16:44:04
Writing library                : libebml v1.2.3 + libmatroska v1.3.0

Video
ID                            : 1
Format                        : AVC
Format/Info                    : Advanced Video Codec
Format profile                : High@L5.1
Format settings, CABAC        : Yes
Format settings, ReFrames      : 4 frames
Muxing mode                    : Header stripping
Codec ID                      : V_MPEG4/ISO/AVC
Duration                      : 2h 27mn
Bit rate mode                  : Variable
Bit rate                      : 4 893 Kbps
Maximum bit rate              : 8 000 Kbps
Width                          : 1 920 pixels
Height                        : 852 pixels
Display aspect ratio          : 2.25:1
Frame rate mode                : Constant
Frame rate                    : 29.970 fps
Standard                      : NTSC
Color space                    : YUV
Chroma subsampling            : 4:2:0
Bit depth                      : 8 bits
Scan type                      : Progressive
Bits/(Pixel*Frame)            : 0.100
Stream size                    : 5.03 GiB (93%)
Language                      : English
Default                        : Yes
Forced                        : No
Color primaries                : BT.709
Transfer characteristics      : BT.709
Matrix coefficients            : BT.709
Color range                    : Limited

Audio
ID                            : 2
Format                        : AC-3
Format/Info                    : Audio Coding 3
Mode extension                : CM (complete main)
Format settings, Endianness    : Big
Muxing mode                    : Header stripping
Codec ID                      : A_AC3
Duration                      : 2h 27mn
Bit rate mode                  : Constant
Bit rate                      : 256 Kbps
Channel(s)                    : 2 channels
Channel positions              : Front: L R
Sampling rate                  : 48.0 KHz
Bit depth                      : 16 bits
Compression mode              : Lossy
Delay relative to video        : 18ms
Stream size                    : 270 MiB (5%)
Language                      : English
Default                        : Yes
Forced                        : No

Screens:

Share-Online.biz

Code:

http://www.share-online.biz/dl/RNHY827OI0
http://www.share-online.biz/dl/O4EZ827O9YR
http://www.share-online.biz/dl/HR20927OZ6Y
http://www.share-online.biz/dl/VNQ0927O0R
http://www.share-online.biz/dl/Y2D1927OVGE
http://www.share-online.biz/dl/20Q1927O0I

Uploaded.net

Code:

http://uploaded.net/file/wv7hdb2r/cm-cacwm108.part1.rar
http://uploaded.net/file/pg98ddma/cm-cacwm108.part2.rar
http://uploaded.net/file/rwfqqi2j/cm-cacwm108.part3.rar
http://uploaded.net/file/ngu87pyw/cm-cacwm108.part4.rar
http://uploaded.net/file/pesr0mkj/cm-cacwm108.part5.rar
http://uploaded.net/file/fhf2blqz/cm-cacwm108.part6.rar

Rapidgator.net

Code:

http://rapidgator.net/file/8a149c0e636e778db71dfba400222185/cm-cacwm108.part1.rar.html
http://rapidgator.net/file/1c5b400173cc8600f5055bdb8c6ca0c8/cm-cacwm108.part2.rar.html
http://rapidgator.net/file/e56284ba47f11a7ee3a90c690b8f8c77/cm-cacwm108.part3.rar.html
http://rapidgator.net/file/7260dcc741a9a83da28bc85d0adf7145/cm-cacwm108.part4.rar.html
http://rapidgator.net/file/bec24082ac2af1ca68d59522fdfaa90c/cm-cacwm108.part5.rar.html
http://rapidgator.net/file/374c03d469722b49b993b1d1f3647c5b/cm-cacwm108.part6.rar.html


[Adventure] Captain America Civil War 2016 1080p TC X264 Masteredition Hive-CM8
Download links:


Related News:


Add comments

Your Name:
Your E-Mail:

Enter the words shown in captcha:


Attention!!! Comments moderated and will not appear immediately. Do not post a comment twice.