Shoujo-tachi wa Kouya o Mezasu Jap-Dub Ger-Sub 720p x264 ACC HDTV - Pure-Anime

Shoujo-tachi wa Kouya o Mezasu
少女たちは荒野を目指す
Girls Beyond the Wasteland
The girls who aim for the wildlands, Girls beyond the youth KOYA

Beschreibung

Für seine Zukunft hat er keinen Plan, was er machen will. Buntarou hat keinen großen Traum, den er verfolgen könnte. Derzeit hängt er nur mit seinen Freunden ab. Eines Tages fragt ihn seine Klassenkameradin Sayuki, ob er ihr beim Entwickeln eines Gal Games helfen möchte. Ihr Interesse wurde durch eine seiner Arbeiten, die für den Theaterklub gedacht war, geweckt, so sagte sie ihm. Buntarou weiß nichts über Gal Games, doch Sayuki ist davon überzeugt, dieses Spiel zu einem Erfolg zu machen. Wird das Spiel zu einem Erfolg wie Sayuki behauptet? Dies ist die Geschichte über Jugendliche und ihren Schritt ins Ungewisse …

Format: MP4
Dauer: ca. 24 min
Größe: ca. 215 MB
Sprache: Japanisch
Untertitel: Deutsch
Releaser: [Pure-ani.me]
Hoster: Uploaded.net & Share-Online.biz
kein PW

Screenshots & Info

Code:

General
Complete name              : [Pure-ani.me] Shoujo-tachi wa Kouya o Mezasu 01 Ger Sub.mp4
Format                      : MPEG-4
Format profile              : Base Media
Codec ID                    : isom (isom/avc1)
File size                  : 215 MiB
Duration                    : 23mn 59s
Overall bit rate mode      : Variable
Overall bit rate            : 1 251 Kbps
Encoded date                : UTC 2016-01-10 10:56:49
Tagged date                : UTC 2016-01-10 10:56:49

Video
ID                          : 1
Format                      : AVC
Format/Info                : Advanced Video Codec
Format profile              : High@L3.1
Format settings, CABAC      : Yes
Format settings, ReFrames  : 4 frames
Codec ID                    : avc1
Codec ID/Info              : Advanced Video Coding
Duration                    : 23mn 59s
Bit rate                    : 1 094 Kbps
Maximum bit rate            : 15.2 Mbps
Width                      : 1 280 pixels
Height                      : 720 pixels
Display aspect ratio        : 16:9
Frame rate mode            : Constant
Frame rate                  : 23.976 (24000/1001) fps
Color space                : YUV
Chroma subsampling          : 4:2:0
Bit depth                  : 8 bits
Scan type                  : Progressive
Bits/(Pixel*Frame)          : 0.050
Stream size                : 188 MiB (87%)
Writing library            : x264 core 146 r2538 121396c
Encoding settings          : cabac=1 / ref=3 / deblock=1:0:0 / analyse=0x3:0x113 / me=hex / subme=7 / psy=1 / psy_rd=1.00:0.00 / mixed_ref=1 / me_range=16 / chroma_me=1 / trellis=1 / 8x8dct=1 / cqm=0 / deadzone=21,11 / fast_pskip=1 / chroma_qp_offset=-2 / threads=12 / lookahead_threads=2 / sliced_threads=0 / nr=0 / decimate=1 / interlaced=0 / bluray_compat=0 / constrained_intra=0 / bframes=3 / b_pyramid=2 / b_adapt=1 / b_bias=0 / direct=1 / weightb=1 / open_gop=0 / weightp=2 / keyint=240 / keyint_min=23 / scenecut=40 / intra_refresh=0 / rc_lookahead=40 / rc=2pass / mbtree=1 / bitrate=1094 / ratetol=1.0 / qcomp=0.60 / qpmin=0 / qpmax=69 / qpstep=4 / cplxblur=20.0 / qblur=0.5 / ip_ratio=1.40 / aq=1:1.00
Encoded date                : UTC 2016-01-10 10:56:49
Tagged date                : UTC 2016-01-10 10:56:51

Audio
ID                          : 2
Format                      : AAC
Format/Info                : Advanced Audio Codec
Format profile              : LC
Codec ID                    : 40
Duration                    : 23mn 59s
Bit rate mode              : Variable
Bit rate                    : 154 Kbps
Maximum bit rate            : 201 Kbps
Channel(s)                  : 2 channels
Channel positions          : Front: L R
Sampling rate              : 48.0 KHz
Frame rate                  : 46.875 fps (1024 spf)
Compression mode            : Lossy
Stream size                : 26.4 MiB (12%)
Encoded date                : UTC 2016-01-10 10:43:48
Tagged date                : UTC 2016-01-10 10:56:51

Alle Mirrors untereinander kompatibel
Folgen einzeln ladbar
Folge 1/12 online

Download

Download via share-online.biz

Download via ul.to


Shoujo-tachi wa Kouya o Mezasu  Jap-Dub Ger-Sub 720p x264 ACC HDTV - Pure-Anime
Download links:


Related News:


Add comments

Your Name:
Your E-Mail:

Enter the words shown in captcha:


Attention!!! Comments moderated and will not appear immediately. Do not post a comment twice.