[Rock] Genesis - Platinum Collection (2004)

Tracklist:

Platinum Collection (CD I)

01. No Son Of Mine (6:36)
02. I Can’t Dance (4:01)
03. Jesus He Knows Me (4:18)
04. Hold On My Heart (4:38)
05. Invisible Touch (3:28)
06. Throwing It All Away (3:50)
07. Tonight Tonight Tonight (Edit) (4:29)
08. Land Of Confusion (4:46)
09. In Too Deep (4:57)
10. Mama (6:49)
11. That’s All (4:25)
12. Home By The Sea (5:08)
13. Second Home By The Sea (6:06)
14. Illegal Alien (5:17)
15. Paperlate (3:23)
16. Calling All Stations (5:45)

Platinum Collection (CD II)

01. Abacab (6:55)
02. Keep It Dark (4:35)
03. Turn It On Again (3:51)
04. Behind The Lines (5:43)
05. Duchess (6:07)
06. Misunderstanding (3:13)
07. Many Too Many (3:35)
08. Follow You Follow Me (4:08)
09. Undertow (4:47)
10. In That Quiet Earth (4:56)
11. Afterglow (4:09)
12. Your Own Special Way (6:19)
13. A Trick Of The Tail (4:35)
14. Ripples (8:08)
15. Los Endos (5:47)

Platinum Collection (CD III)

01. The Lamb Lies Down on Broadway (4:49)
02. Counting Out Time (3:36)
03. Carpet Crawlers (5:01)
04. Firth of Fifth (9:28)
05. The Cinema Show (10:49)
06. I Know What I Like (in Your Wardrobe) (3:53)
07. Supper’s Ready (22:52)
08. The Musical Box (10:24)
09. The Knife (8:53)

Log:

CD 1:

Exact Audio Copy V0.99 prebeta 5 from 4. May 2009

Îò÷¸ò EAC îá èçâëå÷åíèè, âûïîëíåííîì 13. ôåâðàëÿ 2011, 15:48

Genesis / Platinum Collection (CD I)

Äèñêîâîä: PIONEER DVD-RW DVR-218L Adapter: 0 ID: 0

Ðåæèì ÷òåíèÿ : Äîñòîâåðíîñòü
Èñïîëüçîâàíèå òî÷íîãî ïîòîêà : Äà
Îòêëþ÷åíèå êýøà àóäèî : Äà
Èñïîëüçîâàíèå óêàçàòåëåé C2 : Íåò

Êîððåêöèÿ ñìåùåíèÿ ïðè ÷òåíèè : 6
Ñïîñîáíîñòü ÷èòàòü îáëàñòè Lead-in è Lead-out : Íåò
Çàïîëíåíèå ïðîïóùåííûõ ñýìïëîâ òèøèíîé : Äà
Óäàëåíèå áëîêîâ ñ òèøèíîé â íà÷àëå è êîíöå : Íåò
Ïðè âû÷èñëåíèÿõ CRC èñïîëüçîâàëèñü íóëåâûå ñýìïëû : Äà
Èíòåðôåéñ : Âñòðîåííûé Win32-èíòåðôåéñ äëÿ Win NT/2000

Âûõîäíîé ôîðìàò : Ïîëüçîâàòåëüñêèé êîäèðîâùèê
Âûáðàííûé áèòðåéò : 128 kBit/s
Êà÷åñòâî : Âûñîêèé
Äîáàâëåíèå ID3-òýãà : Íåò
Óòèëèòà ñæàòèÿ : C:\Program Files (x86)\Exact Audio Copy\Flac\flac.exe
Äîïîëíèòåëüíûå ïàðàìåòðû : -5 -V -T "ARTIST=%a" -T "TITLE=%t" -T "ALBUM=%g" -T "DATE=%y" -T "TRACKNUMBER=%n" -T "GENRE=%m" -T "COMMENT=EAC FLAC -5" %s

TOC èçâëå÷¸ííîãî CD

Òðåê | Ñòàðò | Äëèòåëüíîñòü | Íà÷àëüíûé ñåêòîð | Êîíå÷íûé ñåêòîð
---------------------------------------------------------------------
1 | 0:00.00 | 6:35.49 | 0 | 29673
2 | 6:35.49 | 4:00.49 | 29674 | 47722
3 | 10:36.23 | 4:17.38 | 47723 | 67035
4 | 14:53.61 | 4:37.53 | 67036 | 87863
5 | 19:31.39 | 3:28.16 | 87864 | 103479
6 | 22:59.55 | 3:50.07 | 103480 | 120736
7 | 26:49.62 | 4:29.35 | 120737 | 140946
8 | 31:19.22 | 4:46.17 | 140947 | 162413
9 | 36:05.39 | 4:56.69 | 162414 | 184682
10 | 41:02.33 | 6:48.62 | 184683 | 215344
11 | 47:51.20 | 4:25.11 | 215345 | 235230
12 | 52:16.31 | 5:07.52 | 235231 | 258307
13 | 57:24.08 | 6:06.24 | 258308 | 285781
14 | 63:30.32 | 5:17.21 | 285782 | 309577
15 | 68:47.53 | 3:23.37 | 309578 | 324839
16 | 72:11.15 | 5:45.19 | 324840 | 350733

Õàðàêòåðèñòèêè äèàïàçîíà èçâëå÷åíèÿ è ñîîáùåíèÿ îá îøèáêàõ

Âûáðàííûé äèàïàçîí

Èìÿ ôàéëà F:\_ÌÓÇÛÊÀ\Genesis - Platinum Collection (EMI 7243 863734 2 7)\2004 Platinum Collection (CD I).wav

Ïèêîâûé óðîâåíü 100.0 %
Êà÷åñòâî äèàïàçîíà 99.9 %
CRC òåñòà B4A609F5
CRC êîïèè B4A609F5
Êîïèðîâàíèå... OK

Îøèáîê íå ïðîèçîøëî

AccurateRip: ñâîäêà

Òðåê 1 òî÷íîå èçâëå÷åíèå (äîâåðèå 5) [3DECEBC5]
Òðåê 2 òî÷íîå èçâëå÷åíèå (äîâåðèå 5) [23060D9E]
Òðåê 3 òî÷íîå èçâëå÷åíèå (äîâåðèå 5) [92D3D61B]
Òðåê 4 òî÷íîå èçâëå÷åíèå (äîâåðèå 5) [EA498DC7]
Òðåê 5 òî÷íîå èçâëå÷åíèå (äîâåðèå 5) [AE77841A]
Òðåê 6 òî÷íîå èçâëå÷åíèå (äîâåðèå 5) [1A439F98]
Òðåê 7 òî÷íîå èçâëå÷åíèå (äîâåðèå 5) [0A03C413]
Òðåê 8 òî÷íîå èçâëå÷åíèå (äîâåðèå 5) [5C36A9D3]
Òðåê 9 òî÷íîå èçâëå÷åíèå (äîâåðèå 5) [1D92CA55]
Òðåê 10 òî÷íîå èçâëå÷åíèå (äîâåðèå 5) [505714CC]
Òðåê 11 òî÷íîå èçâëå÷åíèå (äîâåðèå 5) [6D32FA94]
Òðåê 12 òî÷íîå èçâëå÷åíèå (äîâåðèå 5) [854DB312]
Òðåê 13 òî÷íîå èçâëå÷åíèå (äîâåðèå 5) [BFE39941]
Òðåê 14 òî÷íîå èçâëå÷åíèå (äîâåðèå 5) [2A84AF02]
Òðåê 15 òî÷íîå èçâëå÷åíèå (äîâåðèå 5) [8688CC34]
Òðåê 16 òî÷íîå èçâëå÷åíèå (äîâåðèå 5) [A7D05C0F]

Âñå òðåêè èçâëå÷åíû òî÷íî

Êîíåö îò÷¸òà

CD 2:

Exact Audio Copy V0.99 prebeta 5 from 4. May 2009

Îò÷¸ò EAC îá èçâëå÷åíèè, âûïîëíåííîì 13. ôåâðàëÿ 2011, 17:28

Genesis / Platinum Collection (CD II)

Äèñêîâîä: PIONEER DVD-RW DVR-218L Adapter: 0 ID: 0

Ðåæèì ÷òåíèÿ : Äîñòîâåðíîñòü
Èñïîëüçîâàíèå òî÷íîãî ïîòîêà : Äà
Îòêëþ÷åíèå êýøà àóäèî : Äà
Èñïîëüçîâàíèå óêàçàòåëåé C2 : Íåò

Êîððåêöèÿ ñìåùåíèÿ ïðè ÷òåíèè : 6
Ñïîñîáíîñòü ÷èòàòü îáëàñòè Lead-in è Lead-out : Íåò
Çàïîëíåíèå ïðîïóùåííûõ ñýìïëîâ òèøèíîé : Äà
Óäàëåíèå áëîêîâ ñ òèøèíîé â íà÷àëå è êîíöå : Íåò
Ïðè âû÷èñëåíèÿõ CRC èñïîëüçîâàëèñü íóëåâûå ñýìïëû : Äà
Èíòåðôåéñ : Âñòðîåííûé Win32-èíòåðôåéñ äëÿ Win NT/2000

Âûõîäíîé ôîðìàò : Ïîëüçîâàòåëüñêèé êîäèðîâùèê
Âûáðàííûé áèòðåéò : 128 kBit/s
Êà÷åñòâî : Âûñîêèé
Äîáàâëåíèå ID3-òýãà : Íåò
Óòèëèòà ñæàòèÿ : C:\Program Files (x86)\Exact Audio Copy\Flac\flac.exe
Äîïîëíèòåëüíûå ïàðàìåòðû : -5 -V -T "ARTIST=%a" -T "TITLE=%t" -T "ALBUM=%g" -T "DATE=%y" -T "TRACKNUMBER=%n" -T "GENRE=%m" -T "COMMENT=EAC FLAC -5" %s

TOC èçâëå÷¸ííîãî CD

Òðåê | Ñòàðò | Äëèòåëüíîñòü | Íà÷àëüíûé ñåêòîð | Êîíå÷íûé ñåêòîð
---------------------------------------------------------------------
1 | 0:00.00 | 6:55.24 | 0 | 31148
2 | 6:55.24 | 4:34.60 | 31149 | 51758
3 | 11:30.09 | 3:51.03 | 51759 | 69086
4 | 15:21.12 | 5:43.16 | 69087 | 94827
5 | 21:04.28 | 6:06.54 | 94828 | 122331
6 | 27:11.07 | 3:13.35 | 122332 | 136841
7 | 30:24.42 | 3:34.50 | 136842 | 152941
8 | 33:59.17 | 4:08.33 | 152942 | 171574
9 | 38:07.50 | 4:46.50 | 171575 | 193074
10 | 42:54.25 | 4:55.50 | 193075 | 215249
11 | 47:50.00 | 4:08.42 | 215250 | 233891
12 | 51:58.42 | 6:18.61 | 233892 | 262302
13 | 58:17.28 | 4:35.36 | 262303 | 282963
14 | 62:52.64 | 8:08.01 | 282964 | 319564
15 | 71:00.65 | 5:46.51 | 319565 | 345565

Õàðàêòåðèñòèêè äèàïàçîíà èçâëå÷åíèÿ è ñîîáùåíèÿ îá îøèáêàõ

Âûáðàííûé äèàïàçîí

Èìÿ ôàéëà F:\_ÌÓÇÛÊÀ\Genesis - Platinum Collection (EMI 7243 863734 2 7)\2004 Platinum Collection (CD II).wav

Ïèêîâûé óðîâåíü 100.0 %
Êà÷åñòâî äèàïàçîíà 100.0 %
CRC òåñòà 5D8209FA
CRC êîïèè 5D8209FA
Êîïèðîâàíèå... OK

Îøèáîê íå ïðîèçîøëî

AccurateRip: ñâîäêà

Òðåê 1 òî÷íîå èçâëå÷åíèå (äîâåðèå 4) [847EA85F]
Òðåê 2 òî÷íîå èçâëå÷åíèå (äîâåðèå 4) [8ED7751F]
Òðåê 3 òî÷íîå èçâëå÷åíèå (äîâåðèå 4) [57E7FF52]
Òðåê 4 òî÷íîå èçâëå÷åíèå (äîâåðèå 4) [02A88B0D]
Òðåê 5 òî÷íîå èçâëå÷åíèå (äîâåðèå 4) [F7B3060B]
Òðåê 6 òî÷íîå èçâëå÷åíèå (äîâåðèå 4) [F1AD6D62]
Òðåê 7 òî÷íîå èçâëå÷åíèå (äîâåðèå 4) [52AAEAAC]
Òðåê 8 òî÷íîå èçâëå÷åíèå (äîâåðèå 4) [0E62CF3B]
Òðåê 9 òî÷íîå èçâëå÷åíèå (äîâåðèå 4) [57D3BEBD]
Òðåê 10 òî÷íîå èçâëå÷åíèå (äîâåðèå 4) [2E83B4AF]
Òðåê 11 òî÷íîå èçâëå÷åíèå (äîâåðèå 4) [2E379B98]
Òðåê 12 òî÷íîå èçâëå÷åíèå (äîâåðèå 4) [DDDA3E64]
Òðåê 13 òî÷íîå èçâëå÷åíèå (äîâåðèå 4) [EF2873C9]
Òðåê 14 òî÷íîå èçâëå÷åíèå (äîâåðèå 4) [382FD7D4]
Òðåê 15 òî÷íîå èçâëå÷åíèå (äîâåðèå 4) [FFACAC95]

Âñå òðåêè èçâëå÷åíû òî÷íî

Êîíåö îò÷¸òà

CD 3:

Exact Audio Copy V0.99 prebeta 5 from 4. May 2009

Îò÷¸ò EAC îá èçâëå÷åíèè, âûïîëíåííîì 13. ôåâðàëÿ 2011, 19:07

Genesis / Platinum Collection (CD III)

Äèñêîâîä: PIONEER DVD-RW DVR-218L Adapter: 0 ID: 0

Ðåæèì ÷òåíèÿ : Äîñòîâåðíîñòü
Èñïîëüçîâàíèå òî÷íîãî ïîòîêà : Äà
Îòêëþ÷åíèå êýøà àóäèî : Äà
Èñïîëüçîâàíèå óêàçàòåëåé C2 : Íåò

Êîððåêöèÿ ñìåùåíèÿ ïðè ÷òåíèè : 6
Ñïîñîáíîñòü ÷èòàòü îáëàñòè Lead-in è Lead-out : Íåò
Çàïîëíåíèå ïðîïóùåííûõ ñýìïëîâ òèøèíîé : Äà
Óäàëåíèå áëîêîâ ñ òèøèíîé â íà÷àëå è êîíöå : Íåò
Ïðè âû÷èñëåíèÿõ CRC èñïîëüçîâàëèñü íóëåâûå ñýìïëû : Äà
Èíòåðôåéñ : Âñòðîåííûé Win32-èíòåðôåéñ äëÿ Win NT/2000

Âûõîäíîé ôîðìàò : Ïîëüçîâàòåëüñêèé êîäèðîâùèê
Âûáðàííûé áèòðåéò : 128 kBit/s
Êà÷åñòâî : Âûñîêèé
Äîáàâëåíèå ID3-òýãà : Íåò
Óòèëèòà ñæàòèÿ : C:\Program Files (x86)\Exact Audio Copy\Flac\flac.exe
Äîïîëíèòåëüíûå ïàðàìåòðû : -5 -V -T "ARTIST=%a" -T "TITLE=%t" -T "ALBUM=%g" -T "DATE=%y" -T "TRACKNUMBER=%n" -T "GENRE=%m" -T "COMMENT=EAC FLAC -5" %s

TOC èçâëå÷¸ííîãî CD

Òðåê | Ñòàðò | Äëèòåëüíîñòü | Íà÷àëüíûé ñåêòîð | Êîíå÷íûé ñåêòîð
---------------------------------------------------------------------
1 | 0:00.00 | 4:49.28 | 0 | 21702
2 | 4:49.28 | 3:36.22 | 21703 | 37924
3 | 8:25.50 | 5:01.24 | 37925 | 60523
4 | 13:26.74 | 9:28.31 | 60524 | 103154
5 | 22:55.30 | 10:48.50 | 103155 | 151804
6 | 33:44.05 | 3:53.37 | 151805 | 169316
7 | 37:37.42 | 22:51.48 | 169317 | 272189
8 | 60:29.15 | 10:24.08 | 272190 | 318997
9 | 70:53.23 | 8:53.14 | 318998 | 358986

Õàðàêòåðèñòèêè äèàïàçîíà èçâëå÷åíèÿ è ñîîáùåíèÿ îá îøèáêàõ

Âûáðàííûé äèàïàçîí

Èìÿ ôàéëà F:\_ÌÓÇÛÊÀ\Genesis - Platinum Collection (EMI 7243 863734 2 7)\2004 Platinum Collection (CD III).wav

Ïèêîâûé óðîâåíü 100.0 %
Êà÷åñòâî äèàïàçîíà 100.0 %
CRC òåñòà 2CC4EA21
CRC êîïèè 2CC4EA21
Êîïèðîâàíèå... OK

Îøèáîê íå ïðîèçîøëî

AccurateRip: ñâîäêà

Òðåê 1 òî÷íîå èçâëå÷åíèå (äîâåðèå 8) [E4D19CDE]
Òðåê 2 òî÷íîå èçâëå÷åíèå (äîâåðèå 8) [8DA92259]
Òðåê 3 òî÷íîå èçâëå÷åíèå (äîâåðèå 8) [77DFBA89]
Òðåê 4 òî÷íîå èçâëå÷åíèå (äîâåðèå 8) [F529F9CE]
Òðåê 5 òî÷íîå èçâëå÷åíèå (äîâåðèå 8) [9CE1D61C]
Òðåê 6 òî÷íîå èçâëå÷åíèå (äîâåðèå 8) [3AE7CB14]
Òðåê 7 òî÷íîå èçâëå÷åíèå (äîâåðèå 8) [8B6E9518]
Òðåê 8 òî÷íîå èçâëå÷åíèå (äîâåðèå 8) [656B88BE]
Òðåê 9 òî÷íîå èçâëå÷åíèå (äîâåðèå 8) [7350EF60]

Âñå òðåêè èçâëå÷åíû òî÷íî

Êîíåö îò÷¸òà

Cue:

CD 1:

REM GENRE Rock
REM DATE 2004
REM DISCID EF124410
REM COMMENT "ExactAudioCopy v0.99pb5"
PERFORMER "Genesis"
TITLE "Platinum Collection (CD I)"
FILE "2004 Platinum Collection (CD I).flac" WAVE
TRACK 01 AUDIO
TITLE "No Son Of Mine"
PERFORMER "Genesis"
INDEX 01 00:00:00
TRACK 02 AUDIO
TITLE "I Can't Dance"
PERFORMER "Genesis"
INDEX 01 06:35:49
TRACK 03 AUDIO
TITLE "Jesus He Knows Me"
PERFORMER "Genesis"
INDEX 01 10:36:23
TRACK 04 AUDIO
TITLE "Hold On My Heart"
PERFORMER "Genesis"
INDEX 01 14:53:61
TRACK 05 AUDIO
TITLE "Invisible Touch"
PERFORMER "Genesis"
INDEX 01 19:31:39
TRACK 06 AUDIO
TITLE "Throwing It All Away"
PERFORMER "Genesis"
INDEX 01 22:59:55
TRACK 07 AUDIO
TITLE "Tonight Tonight Tonight (Edit)"
PERFORMER "Genesis"
INDEX 01 26:49:62
TRACK 08 AUDIO
TITLE "Land Of Confusion"
PERFORMER "Genesis"
INDEX 01 31:19:22
TRACK 09 AUDIO
TITLE "In Too Deep"
PERFORMER "Genesis"
INDEX 01 36:05:39
TRACK 10 AUDIO
TITLE "Mama"
PERFORMER "Genesis"
INDEX 01 41:02:33
TRACK 11 AUDIO
TITLE "That's All"
PERFORMER "Genesis"
INDEX 01 47:51:20
TRACK 12 AUDIO
TITLE "Home By The Sea"
PERFORMER "Genesis"
INDEX 01 52:16:31
TRACK 13 AUDIO
TITLE "Second Home By The Sea"
PERFORMER "Genesis"
INDEX 01 57:24:08
TRACK 14 AUDIO
TITLE "Illegal Alien"
PERFORMER "Genesis"
INDEX 01 63:30:32
TRACK 15 AUDIO
TITLE "Paperlate"
PERFORMER "Genesis"
INDEX 01 68:47:53
TRACK 16 AUDIO
TITLE "Calling All Stations"
PERFORMER "Genesis"
INDEX 01 72:11:15

CD 2:

REM GENRE Rock
REM DATE 2004
REM DISCID DF11FF0F
REM COMMENT "ExactAudioCopy v0.99pb5"
PERFORMER "Genesis"
TITLE "Platinum Collection (CD II)"
FILE "2004 Platinum Collection (CD II).flac" WAVE
TRACK 01 AUDIO
TITLE "Abacab"
PERFORMER "Genesis"
INDEX 01 00:00:00
TRACK 02 AUDIO
TITLE "Keep It Dark"
PERFORMER "Genesis"
INDEX 01 06:55:24
TRACK 03 AUDIO
TITLE "Turn It On Again"
PERFORMER "Genesis"
INDEX 01 11:30:09
TRACK 04 AUDIO
TITLE "Behind The Lines"
PERFORMER "Genesis"
INDEX 01 15:21:12
TRACK 05 AUDIO
TITLE "Duchess"
PERFORMER "Genesis"
INDEX 01 21:04:28
TRACK 06 AUDIO
TITLE "Misunderstanding"
PERFORMER "Genesis"
INDEX 01 27:11:07
TRACK 07 AUDIO
TITLE "Many Too Many"
PERFORMER "Genesis"
INDEX 01 30:24:42
TRACK 08 AUDIO
TITLE "Follow You Follow Me"
PERFORMER "Genesis"
INDEX 01 33:59:17
TRACK 09 AUDIO
TITLE "Undertow"
PERFORMER "Genesis"
INDEX 01 38:07:50
TRACK 10 AUDIO
TITLE "In That Quiet Earth"
PERFORMER "Genesis"
INDEX 01 42:54:25
TRACK 11 AUDIO
TITLE "Afterglow"
PERFORMER "Genesis"
INDEX 01 47:50:00
TRACK 12 AUDIO
TITLE "Your Own Special Way"
PERFORMER "Genesis"
INDEX 01 51:58:42
TRACK 13 AUDIO
TITLE "A Trick Of The Tail"
PERFORMER "Genesis"
INDEX 01 58:17:28
TRACK 14 AUDIO
TITLE "Ripples"
PERFORMER "Genesis"
INDEX 01 62:52:64
TRACK 15 AUDIO
TITLE "Los Endos"
PERFORMER "Genesis"
INDEX 01 71:00:65

CD 3:

REM GENRE Rock
REM DATE 2004
REM DISCID 7512B209
REM COMMENT "ExactAudioCopy v0.99pb5"
PERFORMER "Genesis"
TITLE "Platinum Collection (CD III)"
FILE "2004 Platinum Collection (CD III).flac" WAVE
TRACK 01 AUDIO
TITLE "The Lamb Lies Down on Broadway"
PERFORMER "Genesis"
INDEX 01 00:00:00
TRACK 02 AUDIO
TITLE "Counting Out Time"
PERFORMER "Genesis"
INDEX 01 04:49:28
TRACK 03 AUDIO
TITLE "Carpet Crawlers"
PERFORMER "Genesis"
INDEX 01 08:25:50
TRACK 04 AUDIO
TITLE "Firth of Fifth"
PERFORMER "Genesis"
INDEX 01 13:26:74
TRACK 05 AUDIO
TITLE "The Cinema Show"
PERFORMER "Genesis"
INDEX 01 22:55:30
TRACK 06 AUDIO
TITLE "I Know What I Like (in Your Wardrobe)"
PERFORMER "Genesis"
INDEX 01 33:44:05
TRACK 07 AUDIO
TITLE "Supper's Ready"
PERFORMER "Genesis"
INDEX 01 37:37:42
TRACK 08 AUDIO
TITLE "The Musical Box"
PERFORMER "Genesis"
INDEX 01 60:29:15
TRACK 09 AUDIO
TITLE "The Knife"
PERFORMER "Genesis"
INDEX 01 70:53:23

Format: FLAC
Bitrate: lossless
Größe: 1,98 GB

Download

Share-Online, Uploaded

Share-Links

http://s2l.biz/de0e1tnw3fw6

Linkcrypt

http://linkcrypt.ws/dir/oth06k5cu7n9ul7

Nur 1x gepackt, kein Passwort, Mirror kompatibel


[Rock] Genesis - Platinum Collection (2004)
Download links:


Related News:


Add comments

Your Name:
Your E-Mail:

Enter the words shown in captcha:


Attention!!! Comments moderated and will not appear immediately. Do not post a comment twice.