[Komödie] Ein Vogel auf dem Drahtseil 1990 Universal HD Master AC3D 1080i HDTV x264 - marban

Ein Vogel auf dem Drahtseil (1990)
HDTV x264 Dubbed

Neues HD Master von Universal HD mit Logo, DVD Tonspur reingemuxt
Screenshort Vergleich

Infos:

In einem Tankstellenangestellten erkennt die Topanwältin Marianne ihren seit 15 Jahren spurlos verschwundenen Lover Rick wieder. Er tauchte seinerzeit unter, weil er gegen die angesehenen Cops Sorenson und Diggs aussagte, die sich mit Drogen ein Zubrot verdienten. Nun sind sie wieder auf Ricks Fersen, der nur mit Mariannes Hilfe entkommen kann. Eher widerwillig begleitet Marianne Rick auf seiner Flucht durch die Stationen seines in den letzten 15 Jahren rastlosen Lebens, wobei sie sich trotz unterschiedlicher Lebensauffassungen wieder ineinander verlieben. In einem Zoogehege kommt es zum gigantischen Showdown.

Mediainfo:

Format : Matroska
Format version : Version 4 / Version 2
File size : 6.87 GiB
Duration : 1h 45mn
Overall bit rate : 9 279 Kbps
Encoded date : UTC 2014-04-28 17:15:55
Writing application : mkvmerge v6.8.0 ('Theme for Great Cities') 32bit built on Mar 2 2014 21:27:07
Writing library : libebml v1.3.0 + libmatroska v1.4.1

Video
ID : 1
Format : AVC
Format/Info : Advanced Video Codec
Format profile : High@L4.0
Format settings, CABAC : Yes
Format settings, ReFrames : 3 frames
Codec ID : V_MPEG4/ISO/AVC
Duration : 1h 45mn
Bit rate : 8 326 Kbps
Width : 1 920 pixels
Height : 1 080 pixels
Display aspect ratio : 16:9
Frame rate mode : Constant
Frame rate : 25.000 fps
Standard : Component
Color space : YUV
Chroma subsampling : 4:2:0
Bit depth : 8 bits
Scan type : Interlaced
Scan order : Top Field First
Bits/(Pixel*Frame) : 0.161
Stream size : 6.16 GiB (90%)
Default : Yes
Forced : No
Color primaries : BT.709
Transfer characteristics : BT.709
Matrix coefficients : BT.709

Audio #1
ID : 2
Format : AC-3
Format/Info : Audio Coding 3
Mode extension : CM (complete main)
Format settings, Endianness : Big
Codec ID : A_AC3
Duration : 1h 45mn
Bit rate mode : Constant
Bit rate : 384 Kbps
Channel(s) : 2 channels
Channel positions : Front: L R
Sampling rate : 48.0 KHz
Bit depth : 16 bits
Compression mode : Lossy
Stream size : 291 MiB (4%)
Language : English
Default : No
Forced : No

Audio #2
ID : 3
Format : AC-3
Format/Info : Audio Coding 3
Mode extension : CM (complete main)
Format settings, Endianness : Big
Codec ID : A_AC3
Duration : 1h 45mn
Bit rate mode : Constant
Bit rate : 384 Kbps
Channel(s) : 2 channels
Channel positions : Front: L R
Sampling rate : 48.0 KHz
Bit depth : 16 bits
Compression mode : Lossy
Delay relative to video : 3s 0ms
Stream size : 291 MiB (4%)
Language : German
Default : Yes
Forced : No

Text
ID : 4
Format : UTF-8
Codec ID : S_TEXT/UTF8
Codec ID/Info : UTF-8 Plain Text
Language : German
Default : No
Forced : No

Hoster:
UPLOADED.TO | SHARE-ONLINE.BIZ

Dauer: 105 Min | Format: MKV | Größe: 6,9GB | Genre: Komödie | Kein Passwort

Download - UL
Download - SO


[Komödie] Ein Vogel auf dem Drahtseil 1990 Universal HD Master AC3D 1080i HDTV x264 - marban
Download links:


Related News:


Add comments

Your Name:
Your E-Mail:

Enter the words shown in captcha:


Attention!!! Comments moderated and will not appear immediately. Do not post a comment twice.